<?xml version="1.0" standalone="no"?>
<!DOCTYPE svg PUBLIC "-//W3C//DTD SVG 1.1//EN" "http://www.w3.org/Graphics/SVG/1.1/DTD/svg11.dtd" >
<svg>
<metadata>
Created by FontForge 20120731 at Sun Mar  3 16:20:29 2013
 By Jenkins
Copyright (c) 1988, 1990, 1994, 2002 Adobe Systems Incorporated.  All Rights Reserved. (c) 1981, 2002 Heidelberger Druckmaschinen AG. All rights reserved.
</metadata>
<defs>
<font id="FrutigerCE-Bold" horiz-adv-x="556" >
  <font-face 
    font-family="Frutiger CE"
    font-weight="700"
    font-stretch="normal"
    units-per-em="1000"
    panose-1="2 11 7 3 3 5 4 2 2 4"
    ascent="750"
    descent="-250"
    x-height="515"
    cap-height="698"
    bbox="-166 -250 1000 935"
    underline-thickness="50"
    underline-position="-50"
    unicode-range="U+0020-FB02"
  />
<missing-glyph horiz-adv-x="500" 
d="M0 700h500v-700h-500v700zM420 650h-340l170 -255zM450 95v510l-170 -255zM420 50l-170 255l-170 -255h340zM50 95l170 255l-170 255v-510z" />
    <glyph glyph-name="fi" unicode="fi" horiz-adv-x="667" 
d="M461 515h134v-515h-134v515zM461 737h134v-128h-134v128zM118 417h-99v98h99v72q0 39 10.5 71t31.5 55t51.5 36t70.5 13q26 0 52 -3t46 -8l-11 -111q-9 5 -22.5 11.5t-35.5 6.5q-34 0 -46.5 -24.5t-12.5 -54.5v-64h117v-98h-117v-417h-134v417z" />
    <glyph glyph-name="fl" unicode="fl" horiz-adv-x="667" 
d="M461 750h134v-750h-134v750zM118 417h-99v98h99v72q0 39 10.5 71t31.5 55t51.5 36t70.5 13q26 0 52 -3t46 -8l-11 -111q-9 5 -22.5 11.5t-35.5 6.5q-34 0 -46.5 -24.5t-12.5 -54.5v-64h117v-98h-117v-417h-134v417z" />
    <glyph glyph-name=".notdef" horiz-adv-x="500" 
d="M0 700h500v-700h-500v700zM420 650h-340l170 -255zM450 95v510l-170 -255zM420 50l-170 255l-170 -255h340zM50 95l170 255l-170 255v-510z" />
    <glyph glyph-name="space" unicode=" " horiz-adv-x="278" 
 />
    <glyph glyph-name="exclam" unicode="!" horiz-adv-x="389" 
d="M118 698h154l-21 -493h-114zM125 140h140v-140h-140v140z" />
    <glyph glyph-name="quotedbl" unicode="&#x22;" horiz-adv-x="481" 
d="M271 698h122v-250h-122v250zM88 698h122v-250h-122v250z" />
    <glyph glyph-name="numbersign" unicode="#" 
d="M494 205h-92l-29 -205h-88l29 205h-102l-30 -205h-88l29 205h-90v80h101l17 128h-88v80h100l28 205h89l-28 -205h102l28 205h88l-28 -205h81v-80h-93l-17 -128h81v-80zM240 413l-17 -128h102l17 128h-102z" />
    <glyph glyph-name="dollar" unicode="$" 
d="M259 590q-23 -11 -39 -31.5t-16 -55.5q0 -24 15 -40t40 -29v156zM306 112q25 11 41.5 29.5t16.5 46.5t-16 46t-42 31v-153zM306 782v-72q89 0 163 -25l-13 -115q-33 14 -69 22t-73 8q-5 0 -8 -1v-185q33 -13 69 -28t66 -38.5t49.5 -59t19.5 -89.5q0 -49 -15.5 -85.5
t-43 -62t-65 -40t-80.5 -19.5v-82h-47v79q-4 -1 -11 -1q-29 0 -50.5 2t-41.5 5.5t-40.5 8.5t-46.5 11l13 126q36 -20 76 -31.5t82 -11.5h9.5t9.5 2v187q-34 13 -69.5 28t-65 38t-48 57.5t-18.5 86.5q0 51 16.5 88.5t44 63t64 40t76.5 19.5v74h47z" />
    <glyph glyph-name="percent" unicode="%" horiz-adv-x="1000" 
d="M729 68q20 0 32 10t19 25.5t9 34t2 34.5t-2 34.5t-9 34t-19 25.5t-32 10t-32.5 -10t-19.5 -25.5t-9.5 -34t-2.5 -34.5t2.5 -34.5t9.5 -34t19.5 -25.5t32.5 -10zM729 -12q-81 0 -124.5 48t-43.5 136t43.5 136t124.5 48t123.5 -48t42.5 -136t-42.5 -136t-123.5 -48z
M274 342q-81 0 -124.5 48t-43.5 136t43.5 136t124.5 48t123.5 -48t42.5 -136t-42.5 -136t-123.5 -48zM274 422q20 0 32 10t19 25.5t9 34t2 34.5t-2 34.5t-9 34t-19 25.5t-32 10t-32.5 -10t-19.5 -25.5t-9.5 -34t-2.5 -34.5t2.5 -34.5t9.5 -34t19.5 -25.5t32.5 -10zM677 720
h82l-432 -742h-82z" />
    <glyph glyph-name="ampersand" unicode="&#x26;" horiz-adv-x="722" 
d="M279 307q-35 -18 -60 -44.5t-25 -67.5q0 -23 9.5 -42t25.5 -32.5t37.5 -21t45.5 -7.5q35 0 67 9.5t55 32.5zM310 439q13 7 29 17.5t29.5 24t23 29t9.5 30.5q0 37 -23.5 54.5t-53.5 17.5t-55 -18t-25 -56q0 -15 6.5 -28.5t16.5 -25.5t21.5 -23.5zM516 227q26 29 34 70
t10 82h122q-3 -67 -25 -127.5t-64 -111.5l125 -140h-172l-47 62q-37 -38 -87.5 -56t-102.5 -18t-97.5 13.5t-79 39t-53 63.5t-19.5 87q0 63 32 110t115 82q-20 19 -38 36.5t-31 36.5t-20.5 42t-7.5 53q0 40 19.5 69.5t50 49.5t68 30t74.5 10t73 -9t64.5 -28t46 -49t17.5 -72
q0 -36 -10.5 -63t-28.5 -49t-43 -39.5t-53 -33.5z" />
    <glyph glyph-name="quoteright" unicode="&#x2019;" horiz-adv-x="278" 
d="M98 698h146l-92 -250h-118z" />
    <glyph glyph-name="parenleft" unicode="(" horiz-adv-x="333" 
d="M326 756q-32 -51 -59 -101.5t-46 -104.5t-29.5 -113.5t-10.5 -128.5q0 -128 40 -237t105 -211h-127q-75 102 -117.5 211t-42.5 237q0 69 11 128.5t31.5 113.5t50 104.5t67.5 101.5h127z" />
    <glyph glyph-name="parenright" unicode=")" horiz-adv-x="333" 
d="M7 -140q64 102 104.5 211t40.5 237q0 69 -10.5 128.5t-30 113.5t-46 104.5t-58.5 101.5h126q37 -51 67 -101.5t51 -104.5t32 -113.5t11 -128.5q0 -128 -43.5 -237t-117.5 -211h-126z" />
    <glyph glyph-name="asterisk" unicode="*" 
d="M345 475l96 -107l-92 -66l-71 124l-76 -124l-91 66l98 107l-137 31l33 104l133 -57l-16 145h114l-17 -144l133 56l32 -104z" />
    <glyph glyph-name="plus" unicode="+" horiz-adv-x="600" 
d="M248 506h104v-201h202v-104h-202v-201h-104v201h-202v104h202v201z" />
    <glyph glyph-name="comma" unicode="," horiz-adv-x="278" 
d="M87 140h145l-91 -250h-118z" />
    <glyph glyph-name="hyphen" unicode="-" horiz-adv-x="333" 
d="M35 214v110h263v-110h-263z" />
    <glyph glyph-name="period" unicode="." horiz-adv-x="278" 
d="M69 140h140v-140h-140v140z" />
    <glyph glyph-name="slash" unicode="/" horiz-adv-x="389" 
d="M265 710h104l-244 -722h-104z" />
    <glyph glyph-name="zero" unicode="0" 
d="M277 92q39 0 60.5 27.5t31 67t11 83.5t1.5 77q0 34 -1.5 78.5t-11.5 84.5t-31 68t-60 28q-38 0 -59 -28t-30.5 -68t-11 -84.5t-1.5 -78.5q0 -33 1.5 -77t11 -83.5t30 -67t59.5 -27.5zM277 -12q-54 0 -92.5 16.5t-65.5 44t-43.5 64t-25.5 76.5t-12 80.5t-3 77.5
q0 66 11 130.5t39 116.5t74.5 84t117.5 32q76 0 124 -34t74.5 -87t36 -117t9.5 -125t-9.5 -124.5t-36.5 -115.5t-74.5 -85.5t-123.5 -33.5z" />
    <glyph glyph-name="one" unicode="1" 
d="M283 698h124v-698h-140v539l-118 -96l-70 91z" />
    <glyph glyph-name="two" unicode="2" 
d="M41 0v117q16 16 45 42t62.5 58.5t68 69.5t62.5 75t46 75t18 69q0 24 -10 41.5t-26 29.5t-36.5 17.5t-41.5 5.5q-45 0 -85.5 -16.5t-75.5 -39.5l-11 116q48 24 100.5 37t106.5 13q100 0 159.5 -50.5t59.5 -153.5q0 -56 -25 -109t-63.5 -102.5t-85 -96t-89.5 -88.5h285
v-110h-464z" />
    <glyph glyph-name="three" unicode="3" 
d="M53 130q36 -14 74.5 -23t80.5 -9q22 0 47.5 5.5t47.5 17.5t37 30.5t15 45.5q0 31 -11.5 51.5t-32 33.5t-49 18.5t-61.5 5.5h-68v110h64q71 0 113 23t42 69q0 26 -10 44t-26.5 28.5t-38 15t-45.5 4.5q-81 0 -157 -37l-8 112q42 17 91.5 26t103.5 9q32 0 72 -7t75 -26.5
t59 -54.5t24 -91q0 -36 -10.5 -62.5t-28 -46.5t-41 -34t-50.5 -24v-2q67 -9 100 -55.5t33 -110.5q0 -62 -25.5 -102.5t-64.5 -64t-86.5 -32.5t-90.5 -9q-46 0 -95 6t-88 17z" />
    <glyph glyph-name="four" unicode="4" 
d="M317 249v303h-2l-173 -303h175zM16 258l261 440h174v-449h89v-104h-89v-145h-134v145h-301v113z" />
    <glyph glyph-name="five" unicode="5" 
d="M490 594h-269l-3 -149q12 2 28 4.5t36 2.5q37 0 76.5 -10t72.5 -35.5t54.5 -69.5t21.5 -112q0 -49 -17 -92t-51.5 -75.5t-85.5 -51t-118 -18.5q-41 0 -84.5 6t-78.5 14l3 125q26 -11 61.5 -23t81.5 -12q27 0 54 6.5t48 21.5t34 38.5t13 56.5q0 34 -14 57t-36.5 37
t-51 20.5t-58.5 6.5q-65 0 -125 -19l7 375h401v-104z" />
    <glyph glyph-name="six" unicode="6" 
d="M460 572q-28 12 -57.5 20t-64.5 8q-45 0 -76 -19t-50.5 -50t-29 -69.5t-10.5 -77.5l2 -2q48 70 135 70q100 0 152 -58t52 -155q0 -57 -14 -103t-42.5 -79t-72.5 -51t-103 -18q-73 0 -119 27.5t-72.5 73.5t-36 104t-9.5 120q0 71 13 142t45.5 127.5t88 92t140.5 35.5
q76 0 147 -25zM278 348q-26 0 -43.5 -11t-29 -29t-16.5 -42t-5 -50q0 -25 5.5 -47.5t17 -39.5t30 -27t44.5 -10q24 0 41.5 11t29 28.5t16.5 40t5 45.5q0 25 -5.5 49t-17 42t-29.5 29t-43 11z" />
    <glyph glyph-name="seven" unicode="7" 
d="M50 698h450v-116l-248 -582h-152l259 588h-309v110z" />
    <glyph glyph-name="eight" unicode="8" 
d="M163 364q-53 23 -84.5 65t-31.5 97q0 47 17 81.5t46.5 57.5t70 34t88.5 11q46 0 88.5 -10t74.5 -30.5t51.5 -52t19.5 -75.5q0 -24 -7.5 -48.5t-22 -47t-36 -41t-50.5 -30.5v-1q69 -32 101.5 -77.5t32.5 -105.5q0 -53 -18 -91.5t-50 -63t-76 -36.5t-96 -12q-51 0 -96 11.5
t-78 36t-52.5 62.5t-19.5 91q0 59 32.5 100.5t95.5 72.5v2zM181 522q0 -23 10.5 -39.5t26.5 -29t35.5 -21t37.5 -15.5q15 5 29 15.5t25 24t17.5 29.5t6.5 32q0 39 -23 63.5t-63 24.5q-19 0 -37.5 -5.5t-32.5 -16t-23 -26t-9 -36.5zM175 191q0 -22 8.5 -40t23.5 -31t34 -20.5
t40 -7.5q42 0 71 24.5t29 68.5q0 26 -10 45.5t-26.5 34t-37.5 24.5t-43 17q-38 -18 -63.5 -44.5t-25.5 -70.5z" />
    <glyph glyph-name="nine" unicode="9" 
d="M97 126q28 -12 57.5 -20t64.5 -8q45 0 76 19t50.5 50t28.5 69.5t11 77.5l-2 2q-25 -37 -57.5 -53.5t-77.5 -16.5q-100 0 -152 58t-52 155q0 57 14 103t42.5 79t72.5 51t103 18q73 0 119 -27.5t72 -73.5t36 -104.5t10 -119.5q0 -71 -13 -142t-45.5 -127.5t-88 -92
t-140.5 -35.5q-76 0 -147 25zM279 350q25 0 43 11t29.5 29t16.5 42t5 50q0 25 -5.5 47.5t-17 39.5t-30 27t-44.5 10q-24 0 -41.5 -11t-29 -28.5t-16.5 -40t-5 -45.5q0 -26 5.5 -49.5t17 -41.5t29.5 -29t43 -11z" />
    <glyph glyph-name="colon" unicode=":" horiz-adv-x="278" 
d="M69 515h140v-140h-140v140zM69 140h140v-140h-140v140z" />
    <glyph glyph-name="semicolon" unicode=";" horiz-adv-x="278" 
d="M87 140h145l-91 -250h-118zM69 515h140v-140h-140v140z" />
    <glyph glyph-name="less" unicode="&#x3c;" horiz-adv-x="600" 
d="M554 -8l-508 218v86l508 218v-102l-373 -159l373 -159v-102z" />
    <glyph glyph-name="equal" unicode="=" horiz-adv-x="600" 
d="M554 310h-508v104h508v-104zM554 92h-508v104h508v-104z" />
    <glyph glyph-name="greater" unicode="&#x3e;" horiz-adv-x="600" 
d="M419 253l-373 159v102l508 -218v-86l-508 -218v102z" />
    <glyph glyph-name="question" unicode="?" horiz-adv-x="500" 
d="M50 677q48 14 97.5 23.5t100.5 9.5q43 0 84 -10t73 -31.5t51.5 -55.5t19.5 -82q0 -35 -13.5 -63.5t-33.5 -54t-42.5 -49t-41.5 -48.5t-30.5 -52t-8.5 -60h-123q0 36 6.5 64t16.5 50.5t23 40.5t27 33t27 29t23.5 28.5t17 30t6.5 35.5q0 25 -10 42t-26 28t-36.5 16t-42.5 5
q-40 0 -79 -11.5t-75 -28.5zM175 140h140v-140h-140v140z" />
    <glyph glyph-name="at" unicode="@" horiz-adv-x="800" 
d="M415 446q-25 0 -45.5 -11.5t-35.5 -30t-23 -41.5t-8 -45q0 -35 20 -58.5t55 -23.5q24 0 44.5 11.5t35 30t23 41.5t8.5 47q0 35 -20 57.5t-54 22.5zM716 143q-56 -82 -137.5 -118.5t-178.5 -36.5q-65 0 -130 22.5t-117 67.5t-84 113t-32 158q0 75 29 140.5t80.5 114.5
t122.5 77.5t155 28.5q60 0 120.5 -17t109 -53t79 -91.5t30.5 -132.5q0 -51 -14 -91.5t-36.5 -71.5t-50.5 -53t-56 -35.5t-53.5 -20t-41.5 -6.5q-21 0 -37 13t-17 39h-2q-19 -21 -44.5 -36.5t-56.5 -15.5t-59 12t-49.5 34t-34 52.5t-12.5 66.5q0 49 16 93t44 77t65.5 52
t80.5 19q73 0 116 -64l12 48h84l-55 -243q-2 -8 -4.5 -17.5t-2.5 -16.5q0 -15 15 -15q19 0 39 10t36.5 32t27 55t10.5 80q0 61 -24 100.5t-61.5 63t-83.5 32.5t-90 9q-63 0 -115 -22t-89.5 -59t-58 -86t-20.5 -102q0 -58 19.5 -107.5t54 -85.5t82 -56t103.5 -20
q30 0 60.5 2.5t60.5 9t58 19t52 32.5h85z" />
    <glyph glyph-name="A" unicode="A" horiz-adv-x="722" 
d="M358 558h-2l-101 -288h204zM281 698h158l274 -698h-155l-60 160h-283l-61 -160h-145z" />
    <glyph glyph-name="B" unicode="B" horiz-adv-x="611" 
d="M221 110h66q24 0 49.5 4t46.5 14.5t34.5 29.5t13.5 49q0 34 -12.5 54.5t-33 32t-46.5 15t-52 3.5h-66v-202zM221 416h57q22 0 45.5 3t42.5 12.5t31.5 26t12.5 43.5q0 30 -12 47.5t-31.5 26.5t-43.5 11t-48 2h-54v-172zM81 698h244q34 0 73 -6.5t73 -25.5t56.5 -54.5
t22.5 -92.5q0 -63 -38 -104t-101 -52v-2q36 -3 65.5 -16.5t50.5 -34.5t32.5 -48.5t11.5 -59.5q0 -66 -26 -106t-64 -61t-80.5 -28t-75.5 -7h-244v698z" />
    <glyph glyph-name="C" unicode="C" horiz-adv-x="611" 
d="M589 10q-38 -9 -78.5 -15.5t-80.5 -6.5q-85 0 -155.5 21.5t-121 64.5t-78.5 108.5t-28 154.5q0 90 26.5 159.5t76 117t120.5 72t160 24.5q35 0 77.5 -7t80.5 -22l-10 -118q-40 23 -76.5 30t-74.5 7q-54 0 -97.5 -19.5t-73.5 -53.5t-46.5 -80t-16.5 -100q0 -53 16 -98.5
t46.5 -79t74.5 -52.5t100 -19q42 0 85 8t68 21z" />
    <glyph glyph-name="D" unicode="D" horiz-adv-x="722" 
d="M81 698h191q80 0 153 -15.5t128.5 -55t88.5 -107t33 -171.5t-33 -171.5t-88.5 -107t-128.5 -55t-153 -15.5h-191v698zM221 110h78q44 0 85.5 16t73.5 46.5t51.5 75t19.5 101.5t-19.5 101.5t-51.5 75t-73.5 46.5t-85.5 16h-78v-478z" />
    <glyph glyph-name="E" unicode="E" 
d="M81 698h412v-110h-272v-172h249v-110h-249v-196h274v-110h-414v698z" />
    <glyph glyph-name="F" unicode="F" horiz-adv-x="500" 
d="M81 698h388v-110h-248v-172h236v-110h-236v-306h-140v698z" />
    <glyph glyph-name="G" unicode="G" horiz-adv-x="722" 
d="M626 563q-41 19 -89.5 28t-90.5 9q-61 0 -108 -19.5t-79.5 -53.5t-49 -80t-16.5 -100q0 -53 16 -98.5t46.5 -79t74.5 -52.5t100 -19q29 0 51.5 2.5t40.5 7.5v182h-148v110h282v-376q-56 -15 -112.5 -25.5t-113.5 -10.5q-85 0 -155.5 21.5t-121 64.5t-78.5 108.5
t-28 154.5q0 90 26.5 159.5t76 117t120.5 72t160 24.5q61 0 110.5 -7.5t94.5 -21.5z" />
    <glyph glyph-name="H" unicode="H" horiz-adv-x="722" 
d="M81 698h140v-282h280v282h140v-698h-140v306h-280v-306h-140v698z" />
    <glyph glyph-name="I" unicode="I" horiz-adv-x="278" 
d="M69 698h140v-698h-140v698z" />
    <glyph glyph-name="J" unicode="J" horiz-adv-x="389" 
d="M22 122q14 -5 30 -8.5t37 -3.5q34 0 52.5 12t27 30.5t10 40t1.5 40.5v465h140v-532q0 -28 -9.5 -59t-32 -57.5t-59 -44t-90.5 -17.5q-29 0 -53.5 2.5t-53.5 10.5v121z" />
    <glyph glyph-name="K" unicode="K" horiz-adv-x="667" 
d="M81 698h140v-300l252 300h172l-287 -329l299 -369h-183l-251 324h-2v-324h-140v698z" />
    <glyph glyph-name="L" unicode="L" horiz-adv-x="500" 
d="M81 698h140v-588h271v-110h-411v698z" />
    <glyph glyph-name="M" unicode="M" horiz-adv-x="944" 
d="M81 698h224l166 -529h2l166 529h224v-698h-134v576h-2l-188 -576h-134l-188 576l-2 -2v-574h-134v698z" />
    <glyph glyph-name="N" unicode="N" horiz-adv-x="722" 
d="M74 698h172l266 -522h2v522h134v-698h-171l-267 522h-2v-522h-134v698z" />
    <glyph glyph-name="O" unicode="O" horiz-adv-x="778" 
d="M47 351q0 80 22 146t65.5 113.5t107.5 73.5t147 26q82 0 146 -26.5t107.5 -74t66 -113.5t22.5 -145t-22.5 -145.5t-66 -115t-107 -75.5t-146.5 -27q-84 0 -148 26.5t-107 74.5t-65 115t-22 147zM193 351q0 -47 10.5 -92.5t34 -81t60.5 -57.5t91 -22t91 22t60.5 57.5
t34 81t10.5 92.5q0 46 -11 90.5t-35 80t-61 57t-89 21.5t-89 -21.5t-61 -57t-35 -80t-11 -90.5z" />
    <glyph glyph-name="P" unicode="P" 
d="M209 375h49q26 0 50 5t42.5 17t29.5 32t11 50t-10.5 51t-29 34t-42.5 18.5t-51 5.5h-49v-213zM69 698h177q57 0 109.5 -9.5t93 -33.5t64.5 -64.5t24 -103.5q0 -61 -21 -103.5t-57.5 -68.5t-85.5 -38t-105 -12h-59v-265h-140v698z" />
    <glyph glyph-name="Q" unicode="Q" horiz-adv-x="778" 
d="M544 -132l-122 122q-8 -2 -16 -2h-17q-84 0 -148 26.5t-107 74.5t-65 115t-22 147t22 146t65.5 113.5t107.5 73.5t147 26q82 0 146 -26.5t107.5 -74t66 -113.5t22.5 -145q0 -113 -44.5 -198.5t-131.5 -127.5l158 -157h-169zM193 351q0 -47 10.5 -92.5t34 -81t60.5 -57.5
t91 -22t91 22t60.5 57.5t34 81t10.5 92.5q0 46 -11 90.5t-35 80t-61 57t-89 21.5t-89 -21.5t-61 -57t-35 -80t-11 -90.5z" />
    <glyph glyph-name="R" unicode="R" horiz-adv-x="611" 
d="M209 400h46q26 0 52.5 3t47.5 13t34.5 29t13.5 52q0 31 -13.5 49.5t-34.5 27.5t-47.5 11.5t-52.5 2.5h-46v-188zM69 698h151q56 0 114.5 -2.5t106 -19.5t78 -55.5t30.5 -111.5q0 -31 -10 -58.5t-28.5 -49t-45.5 -36t-60 -18.5v-2q14 -1 25.5 -8t20.5 -17.5t16 -22.5
t12 -24l112 -273h-156l-84 218q-8 19 -15.5 33t-18.5 22.5t-26 12.5t-37 4h-45v-290h-140v698z" />
    <glyph glyph-name="S" unicode="S" 
d="M456 570q-33 14 -69 22t-73 8q-18 0 -37.5 -4.5t-35.5 -15.5t-26.5 -30t-10.5 -47q0 -30 22.5 -48t56.5 -32.5t74 -29t74 -38.5t56.5 -61t22.5 -95q0 -57 -21 -97.5t-57 -65.5t-83.5 -36.5t-100.5 -11.5q-29 0 -50.5 2t-41.5 5.5t-40.5 8.5t-46.5 11l13 126
q36 -20 76 -31.5t82 -11.5q20 0 42 5t40 16t30 28t12 41q0 33 -22.5 53t-56.5 35t-74 30t-74 38t-56.5 59t-22.5 94t21 99t55 66t78 36.5t90 11.5q92 0 167 -25z" />
    <glyph glyph-name="T" unicode="T" 
d="M208 588h-200v110h540v-110h-200v-588h-140v588z" />
    <glyph glyph-name="U" unicode="U" horiz-adv-x="722" 
d="M76 698h140v-403q0 -45 7.5 -81t25 -62t45 -40t67.5 -14t67.5 14t45 40t25 62t7.5 81v403h140v-446q0 -70 -19.5 -120t-56 -82t-89.5 -47t-120 -15t-120 15t-89.5 47t-56 82t-19.5 120v446z" />
    <glyph glyph-name="V" unicode="V" horiz-adv-x="667" 
d="M10 698h150l179 -548h2l177 548h139l-235 -698h-172z" />
    <glyph glyph-name="W" unicode="W" horiz-adv-x="1000" 
d="M10 698h147l130 -558h2l119 558h190l123 -558h2l131 558h136l-182 -698h-180l-126 558h-2l-124 -558h-181z" />
    <glyph glyph-name="X" unicode="X" horiz-adv-x="667" 
d="M239 363l-208 335h162l146 -249l149 249h150l-210 -335l229 -363h-165l-161 272l-163 -272h-158z" />
    <glyph glyph-name="Y" unicode="Y" horiz-adv-x="667" 
d="M266 276l-255 422h164l165 -293l168 293h148l-250 -422v-276h-140v276z" />
    <glyph glyph-name="Z" unicode="Z" 
d="M36 114l328 474h-315v110h464v-114l-331 -474h338v-110h-484v114z" />
    <glyph glyph-name="bracketleft" unicode="[" horiz-adv-x="333" 
d="M72 756h224v-98h-96v-700h96v-98h-224v896z" />
    <glyph glyph-name="backslash" unicode="\" horiz-adv-x="389" 
d="M20 710h104l244 -722h-104z" />
    <glyph glyph-name="bracketright" unicode="]" horiz-adv-x="333" 
d="M261 756v-896h-224v98h96v700h-96v98h224z" />
    <glyph glyph-name="asciicircum" unicode="^" horiz-adv-x="600" 
d="M66 313l187 385h94l187 -385h-104l-130 280l-130 -280h-104z" />
    <glyph glyph-name="underscore" unicode="_" horiz-adv-x="500" 
d="M500 -75v-50h-500v50h500z" />
    <glyph glyph-name="quoteleft" unicode="&#x2018;" horiz-adv-x="278" 
d="M125 698h119l-63 -250h-147z" />
    <glyph glyph-name="a" unicode="a" 
d="M92 488q39 18 87.5 28.5t91.5 10.5q118 0 170 -51.5t52 -165.5v-66q0 -39 0.5 -69.5t1.5 -59.5t2.5 -57t3.5 -58h-118q-4 20 -4.5 42.5t-1.5 34.5h-2q-12 -21 -29.5 -38t-38.5 -28t-44.5 -17t-46.5 -6q-34 0 -66.5 10t-57.5 29.5t-40.5 48t-15.5 65.5q0 58 25 93t63 54
t84.5 24.5t88.5 5.5h74q0 63 -28 87t-88 24q-43 0 -84 -15t-75 -41zM164 149q0 -33 24.5 -48t60.5 -15q31 0 54.5 12.5t39.5 33.5q17 22 22.5 49t5.5 57h-58q-23 0 -49 -3t-48 -12t-37 -26.5t-15 -47.5z" />
    <glyph glyph-name="b" unicode="b" horiz-adv-x="611" 
d="M204 259q0 -27 6 -56.5t19.5 -54t36.5 -40.5t56 -16t55 16t34.5 41t18 54t5.5 56q0 26 -5 55t-18 53t-34 40t-54 16q-32 0 -55 -15.5t-37.5 -39.5t-21 -53t-6.5 -56zM69 750h134v-301h2q28 37 64.5 57.5t89.5 20.5q59 0 100.5 -22t67 -59t37 -85.5t11.5 -101.5
t-11.5 -102t-37 -86.5t-67 -60t-100.5 -22.5q-43 0 -86 17t-72 58h-2v-63h-130v750z" />
    <glyph glyph-name="c" unicode="c" horiz-adv-x="444" 
d="M403 404q-18 8 -39 13.5t-52 5.5q-63 0 -99.5 -45t-36.5 -118q0 -36 8.5 -66.5t25.5 -53t43.5 -35.5t61.5 -13q29 0 57.5 8t45.5 16l6 -111q-29 -9 -60.5 -13t-73.5 -4q-63 0 -111 20.5t-79.5 56.5t-47.5 86t-16 109q0 56 16.5 104.5t48 84.5t78 57t106.5 21
q41 0 71.5 -4.5t58.5 -12.5z" />
    <glyph glyph-name="d" unicode="d" horiz-adv-x="611" 
d="M176 259q0 -27 5.5 -56t18 -54t34.5 -41t55 -16t56 16t36.5 40.5t19.5 54t6 56.5t-6.5 56t-21 53t-37.5 39.5t-55 15.5q-33 0 -54 -16t-34 -40t-18 -53t-5 -55zM412 58h-2q-30 -38 -70 -54t-88 -16q-59 0 -100.5 22.5t-67 60t-37 86.5t-11.5 102t11.5 101.5t37 85.5
t67 59t100.5 22q51 0 87.5 -17.5t66.5 -54.5h2v295h134v-750h-130v58z" />
    <glyph glyph-name="e" unicode="e" 
d="M392 308q-2 24 -8.5 46t-19.5 38.5t-33 26.5t-48 10q-57 0 -85.5 -34.5t-33.5 -86.5h228zM482 29q-37 -20 -80 -30.5t-97 -10.5q-128 0 -198.5 69.5t-70.5 197.5q0 56 15 105.5t44.5 86.5t74.5 58.5t105 21.5q72 0 119 -23.5t75 -64.5t39.5 -98.5t11.5 -124.5h-356
q5 -63 44.5 -96.5t102.5 -33.5q49 0 91 15.5t80 36.5v-109z" />
    <glyph glyph-name="f" unicode="f" horiz-adv-x="389" 
d="M118 417h-99v98h99v72q0 39 10.5 71t31.5 55t51.5 36t70.5 13q26 0 52 -3t46 -8l-11 -111q-9 5 -22.5 11.5t-35.5 6.5q-34 0 -46.5 -24.5t-12.5 -54.5v-64h117v-98h-117v-417h-134v417z" />
    <glyph glyph-name="g" unicode="g" horiz-adv-x="611" 
d="M290 104q31 0 53.5 12.5t37 34.5t21 51t6.5 61q0 33 -6.5 62t-20 51t-35 34.5t-50.5 12.5q-34 0 -57 -14.5t-37 -37.5t-20 -52t-6 -59q0 -26 7 -54t21 -50.5t35.5 -37t50.5 -14.5zM542 515v-465q0 -53 -12 -102t-43 -86.5t-83.5 -60.5t-133.5 -23q-40 0 -85 7.5t-93 27.5
l11 114q15 -8 34.5 -16t40 -14.5t40 -10.5t35.5 -4q55 0 86.5 18.5t46.5 48t18.5 65t3.5 68.5h-2q-19 -33 -61 -57.5t-99 -24.5t-97 21t-65 57t-36.5 83t-11.5 99q0 46 12.5 94t39 86t67.5 62.5t99 24.5q51 0 90.5 -18.5t67.5 -63.5h2v70h128z" />
    <glyph glyph-name="h" unicode="h" horiz-adv-x="611" 
d="M69 750h134v-305h2q26 38 67.5 60t94.5 22q46 0 79 -15.5t54.5 -42.5t31.5 -64t10 -80v-325h-134v275q0 24 -1.5 50t-10 47.5t-26 36t-49.5 14.5q-36 0 -59 -17.5t-36 -43.5t-18 -55.5t-5 -54.5v-252h-134v750z" />
    <glyph glyph-name="i" unicode="i" horiz-adv-x="278" 
d="M72 515h134v-515h-134v515zM72 737h134v-128h-134v128z" />
    <glyph glyph-name="j" unicode="j" horiz-adv-x="278" 
d="M-10 -118q27 1 43 5.5t25 15t11.5 29t2.5 48.5v535h134v-553q0 -27 -5.5 -59.5t-22 -60t-47 -46t-80.5 -18.5q-17 0 -35 2t-31 6zM72 737h134v-128h-134v128z" />
    <glyph glyph-name="k" unicode="k" 
d="M72 750h134v-441h2l160 206h158l-192 -230l216 -285h-170l-172 250h-2v-250h-134v750z" />
    <glyph glyph-name="l" unicode="l" horiz-adv-x="278" 
d="M72 750h134v-750h-134v750z" />
    <glyph glyph-name="m" unicode="m" horiz-adv-x="889" 
d="M67 515h125v-72h2q32 48 73.5 66t79.5 18q54 0 92 -21.5t60 -69.5q23 46 68.5 68.5t92.5 22.5q48 0 79 -15.5t50 -42.5t26.5 -64t7.5 -80v-325h-134v307q0 18 -1 38.5t-8.5 37.5t-23 28.5t-44.5 11.5q-33 0 -53 -17.5t-30.5 -44t-13.5 -56.5t-3 -55v-250h-134v307
q0 18 -1 38.5t-8.5 37.5t-23 28.5t-44.5 11.5q-33 0 -53 -17.5t-30.5 -44t-13.5 -56.5t-3 -55v-250h-134v515z" />
    <glyph glyph-name="n" unicode="n" horiz-adv-x="611" 
d="M69 515h127v-70h2q32 45 74 63.5t95 18.5q46 0 79 -15.5t54.5 -42.5t31.5 -64t10 -80v-325h-134v275q0 24 -1.5 50t-10 47.5t-26 36t-49.5 14.5q-36 0 -59 -17.5t-36 -43.5t-18 -55.5t-5 -54.5v-252h-134v515z" />
    <glyph glyph-name="o" unicode="o" horiz-adv-x="611" 
d="M36 254q0 64 20.5 114.5t57 85.5t85.5 54t106 19t106.5 -19t86 -54t57 -85.5t20.5 -114.5q0 -56 -18 -104.5t-52.5 -84.5t-85 -56.5t-114.5 -20.5t-114 20.5t-84.5 56.5t-52.5 84.5t-18 104.5zM176 270q0 -32 6 -63.5t20.5 -57t39.5 -41.5t63 -16q39 0 64 15.5t39.5 41
t20.5 57.5t6 64q0 30 -8 57.5t-24 48.5t-40.5 34t-57.5 13t-57 -13t-40 -34.5t-24 -49t-8 -56.5z" />
    <glyph glyph-name="p" unicode="p" horiz-adv-x="611" 
d="M69 515h128v-73h2q23 38 61.5 61.5t98.5 23.5q59 0 100.5 -22t67 -59t37 -85.5t11.5 -101.5t-11.5 -102t-37.5 -86.5t-68 -60t-102 -22.5q-43 0 -79.5 14t-71.5 57h-2v-269h-134v725zM324 423q-32 0 -55 -15.5t-37.5 -39.5t-21 -53t-6.5 -56t6 -56.5t19.5 -54t36.5 -40.5
t56 -16t55 16t34.5 41t18 54t5.5 56q0 26 -5 55t-18 53t-34 40t-54 16z" />
    <glyph glyph-name="q" unicode="q" horiz-adv-x="611" 
d="M408 59h-2q-35 -43 -71.5 -57t-79.5 -14q-60 0 -102 22.5t-68 60t-37.5 86.5t-11.5 102t11.5 101.5t37.5 85.5t68 59t102 22q57 0 95 -22.5t62 -62.5h2v73h128v-725h-134v269zM287 423q-33 0 -54 -16t-34 -40t-18 -53t-5 -55q0 -27 5.5 -56t18 -54t34.5 -41t55 -16t56 16
t36.5 40.5t19.5 54t6 56.5t-6.5 56t-21 53t-37.5 39.5t-55 15.5z" />
    <glyph glyph-name="r" unicode="r" horiz-adv-x="389" 
d="M72 515h119v-117h2q2 18 13 40.5t29.5 42t43.5 33t55 13.5q10 0 20 -0.5t21 -3.5v-135q-9 5 -25.5 8t-34.5 3q-41 0 -63 -22.5t-32.5 -55t-12 -68.5t-1.5 -64v-189h-134v515z" />
    <glyph glyph-name="s" unicode="s" horiz-adv-x="444" 
d="M375 407q-31 11 -57 16.5t-63 5.5q-14 0 -28 -2.5t-25 -9.5t-18.5 -18t-7.5 -27q0 -20 17.5 -31.5t43 -20t56 -17.5t56 -26.5t43 -46t17.5 -74.5q0 -45 -18.5 -77t-48.5 -52t-69 -29.5t-80 -9.5q-38 0 -76.5 6t-75.5 16l8 110q32 -16 64.5 -25t67.5 -9q13 0 28 3t28.5 10
t22.5 19t9 31q0 25 -17.5 38t-43 22t-56 17t-56 24t-43 43t-17.5 74q0 42 17 72t45 49.5t64.5 29t75.5 9.5q48 0 81 -6t65 -13z" />
    <glyph glyph-name="t" unicode="t" horiz-adv-x="389" 
d="M113 417h-99v98h99v103l134 43v-146h119v-98h-119v-240q0 -17 2.5 -32t9.5 -27t19.5 -19t31.5 -7q18 0 34 3.5t27 10.5l4 -106q-21 -6 -45 -9t-54 -3q-79 0 -121 45t-42 122v262z" />
    <glyph glyph-name="u" unicode="u" horiz-adv-x="611" 
d="M542 0h-127v70h-2q-31 -38 -73.5 -60t-95.5 -22q-46 0 -79 15t-54.5 42t-31.5 64t-10 81v325h134v-275q0 -24 1.5 -50t9.5 -47.5t26 -36t50 -14.5q36 0 59 17.5t36 43.5t18 55.5t5 54.5v252h134v-515z" />
    <glyph glyph-name="v" unicode="v" 
d="M12 515h144l128 -375h2l124 375h134l-190 -515h-151z" />
    <glyph glyph-name="w" unicode="w" horiz-adv-x="889" 
d="M11 515h142l114 -381h2l104 381h156l112 -381h2l107 381h128l-158 -515h-158l-112 393h-2l-110 -393h-153z" />
    <glyph glyph-name="x" unicode="x" 
d="M27 515h158l101 -168l99 168h142l-154 -245l174 -270h-160l-115 192l-116 -192h-147l177 270z" />
    <glyph glyph-name="y" unicode="y" 
d="M283 139h2l124 376h136l-193 -511q-16 -43 -32 -83.5t-39 -72t-57 -51t-86 -19.5q-47 0 -95 14l9 99q13 -5 28.5 -7t40.5 -2q41 0 64 25t23 67l-197 541h148z" />
    <glyph glyph-name="z" unicode="z" horiz-adv-x="500" 
d="M47 515h408v-110l-256 -301h265v-104h-428v109l261 302h-250v104z" />
    <glyph glyph-name="braceleft" unicode="{" horiz-adv-x="333" 
d="M18 351q14 0 28.5 4.5t26.5 15.5t19.5 28.5t7.5 44.5v177q0 35 13 60.5t34 42t47.5 24.5t53.5 8h75v-80h-45q-33 0 -41.5 -19.5t-8.5 -53.5v-173q0 -35 -11.5 -58t-28.5 -36.5t-36.5 -19.5t-35.5 -7v-2q16 -2 35.5 -7t36.5 -18.5t28.5 -38t11.5 -64.5v-166q0 -35 8.5 -54
t41.5 -19h45v-80h-75q-29 0 -55.5 8.5t-47 25t-33 42t-12.5 59.5v170q0 29 -7.5 48t-19.5 30.5t-26.5 16.5t-28.5 5v86z" />
    <glyph glyph-name="bar" unicode="|" horiz-adv-x="222" 
d="M163 750v-1000h-104v1000h104z" />
    <glyph glyph-name="braceright" unicode="}" horiz-adv-x="333" 
d="M315 265q-14 0 -28.5 -5t-26.5 -16.5t-19.5 -30.5t-7.5 -48v-170q0 -35 -12.5 -60.5t-33 -42t-47.5 -24.5t-55 -8h-75v80h45q33 0 41.5 19t8.5 54v166q0 40 11.5 64.5t28.5 38t36.5 18.5t35.5 7v2q-16 1 -35.5 7t-36.5 19.5t-28.5 36.5t-11.5 58v173q0 34 -8.5 53.5
t-41.5 19.5h-45v80h75q28 0 55 -8t47.5 -24.5t33 -42t12.5 -60.5v-177q0 -27 7.5 -44.5t19.5 -28.5t26.5 -15.5t28.5 -4.5v-86z" />
    <glyph glyph-name="asciitilde" unicode="~" horiz-adv-x="600" 
d="M69 252q8 16 19 31.5t26 28t33.5 20.5t42.5 8q38 0 65.5 -10.5t51.5 -23.5q26 -13 51.5 -24.5t53.5 -11.5q26 0 46 23t37 49l36 -88q-9 -16 -21 -31.5t-26.5 -28t-31.5 -20.5t-36 -8q-35 0 -62.5 10.5t-53.5 24.5t-51 24.5t-58 10.5q-17 0 -30.5 -6.5t-24 -16.5t-18 -23
t-13.5 -26z" />
    <glyph glyph-name="exclamdown" unicode="&#xa1;" horiz-adv-x="389" 
d="M138 310h111l22 -493h-154zM123 515h140v-140h-140v140z" />
    <glyph glyph-name="cent" unicode="&#xa2;" 
d="M343 423q-54 -7 -85.5 -51.5t-31.5 -111.5q0 -34 7.5 -63t24.5 -52zM459 608l-28 -91q9 -1 17.5 -3t16.5 -4l-12 -106q-11 5 -24 9.5t-28 6.5l-97 -315q25 -13 61 -13q29 0 57.5 8t45.5 16l6 -111q-29 -9 -60.5 -13t-73.5 -4q-19 0 -36 1.5t-34 6.5l-27 -86h-58l32 104
q-66 32 -98.5 96.5t-32.5 149.5q0 56 16.5 104.5t48 84.5t78 57t106.5 21h21t19 -2l26 83h58z" />
    <glyph glyph-name="sterling" unicode="&#xa3;" 
d="M54 104h88v219h-76v80h76v84q0 50 19 91t51.5 70.5t76 45.5t93.5 16q42 0 72 -4.5t58 -12.5l-7 -110q-22 6 -44.5 11.5t-52.5 5.5q-33 0 -57 -11t-39 -29t-22.5 -41.5t-7.5 -48.5v-67h147v-80h-147v-219h223v-104h-451v104z" />
    <glyph glyph-name="fraction" unicode="&#x2044;" horiz-adv-x="167" 
d="M251 720h82l-417 -742h-82z" />
    <glyph glyph-name="yen" unicode="&#xa5;" 
d="M394 369h98v-80h-140l-7 -13v-49h147v-80h-147v-147h-134v147h-147v80h147v49l-8 13h-139v80h100l-174 329h141l151 -308l154 308h131z" />
    <glyph glyph-name="florin" unicode="&#x192;" 
d="M238 406l31 140q18 82 61 123t133 41q43 0 84 -9l-18 -106q-12 3 -25 7t-33 4q-34 0 -48.5 -23.5t-21.5 -58.5l-25 -118h121l-13 -80h-124l-61 -329q-5 -26 -14 -63t-29.5 -72t-54.5 -59.5t-89 -24.5q-26 0 -52.5 1t-51.5 9l20 99q13 -3 25.5 -4t26.5 -1q22 0 35 9.5
t20.5 24t11 30t5.5 27.5l70 353h-113l15 80h114z" />
    <glyph glyph-name="section" unicode="&#xa7;" 
d="M170 309q0 -24 21 -41.5t50.5 -30.5t60 -23.5t49.5 -22.5q16 14 26 33t10 42q0 26 -17 42t-43 28t-58.5 22t-62.5 25q-14 -10 -25 -30t-11 -44zM440 581q-34 13 -70 19t-73 6q-19 0 -36 -3t-30.5 -10.5t-21.5 -21t-8 -33.5q-1 -26 20 -42t53.5 -28.5t70 -25t70 -32
t54.5 -48.5t22 -75q0 -40 -19.5 -74t-54.5 -54q32 -19 50 -49t18 -65q0 -45 -19.5 -78.5t-50.5 -56.5t-71 -34.5t-80 -11.5q-48 0 -93.5 9t-91.5 20l9 114q38 -16 82 -27.5t86 -11.5q21 0 39 3.5t32 11.5t22 21t8 33q0 25 -21.5 41.5t-54 29.5t-70 26t-70 32t-54 47
t-21.5 72q0 48 20 80.5t57 54.5q-34 23 -52 50t-18 69q0 44 19.5 76.5t50.5 53.5t70 31t78 10q41 0 80.5 -6t79.5 -14z" />
    <glyph glyph-name="currency" unicode="&#xa4;" 
d="M538 552l-58 -58q23 -32 34.5 -68t11.5 -74q0 -77 -46 -144l58 -58l-59 -59l-58 58q-66 -46 -143 -46t-143 46l-58 -58l-59 59l58 58q-23 33 -34.5 69.5t-11.5 73.5q0 77 46 143l-58 58l59 59l58 -58q32 23 68.5 34.5t74.5 11.5q77 0 143 -46l58 58zM140 351
q0 -30 11 -56t29.5 -45.5t43.5 -31t54 -11.5q28 0 53.5 11.5t44 31t29.5 45.5t11 56t-11 56t-29.5 45.5t-44 31t-53.5 11.5q-29 0 -54 -11.5t-43.5 -31t-29.5 -45.5t-11 -56z" />
    <glyph glyph-name="quotesingle" unicode="'" horiz-adv-x="278" 
d="M78 698h122v-250h-122v250z" />
    <glyph glyph-name="quotedblleft" unicode="&#x201c;" horiz-adv-x="481" 
d="M125 698h119l-63 -250h-147zM328 698h119l-63 -250h-147z" />
    <glyph glyph-name="guillemotleft" unicode="&#xab;" 
d="M390 474h126l-110 -205l110 -205h-126l-118 205zM167 474h126l-110 -205l110 -205h-126l-118 205z" />
    <glyph glyph-name="guilsinglleft" unicode="&#x2039;" horiz-adv-x="333" 
d="M167 474h126l-110 -205l110 -205h-126l-118 205z" />
    <glyph glyph-name="guilsinglright" unicode="&#x203a;" horiz-adv-x="333" 
d="M166 64h-126l110 205l-110 205h126l118 -205z" />
    <glyph glyph-name="endash" unicode="&#x2013;" horiz-adv-x="500" 
d="M0 315h500v-92h-500v92z" />
    <glyph glyph-name="dagger" unicode="&#x2020;" 
d="M59 539h155v159h128v-159h155v-104h-155v-435h-128v435h-155v104z" />
    <glyph glyph-name="daggerdbl" unicode="&#x2021;" 
d="M59 555h155v143h128v-143h155v-98h-155v-212h155v-98h-155v-147h-128v147h-155v98h155v212h-155v98z" />
    <glyph glyph-name="periodcentered" unicode="&#xb7;" horiz-adv-x="278" 
d="M139 207q-35 0 -56 21.5t-21 55.5t21 55.5t56 21.5t56 -21.5t21 -55.5t-21 -55.5t-56 -21.5z" />
    <glyph glyph-name="paragraph" unicode="&#xb6;" horiz-adv-x="620" 
d="M221 341q-105 0 -162 47.5t-57 127.5q0 52 18 87t50 56t76 30t96 9h293v-822h-104v742h-106v-742h-104v465z" />
    <glyph glyph-name="bullet" unicode="&#x2022;" horiz-adv-x="500" 
d="M76 349q0 36 13.5 67.5t37.5 55.5t55.5 37.5t67.5 13.5t68 -13.5t55.5 -37.5t37.5 -55.5t14 -67.5t-14 -68t-37.5 -55.5t-55.5 -37.5t-68 -14t-67.5 14t-55.5 37.5t-37.5 55.5t-13.5 68z" />
    <glyph glyph-name="quotesinglbase" unicode="&#x201a;" horiz-adv-x="278" 
d="M98 140h146l-92 -250h-118z" />
    <glyph glyph-name="quotedblbase" unicode="&#x201e;" horiz-adv-x="481" 
d="M301 140h146l-92 -250h-118zM98 140h146l-92 -250h-118z" />
    <glyph glyph-name="quotedblright" unicode="&#x201d;" horiz-adv-x="481" 
d="M98 698h146l-92 -250h-118zM301 698h146l-92 -250h-118z" />
    <glyph glyph-name="guillemotright" unicode="&#xbb;" 
d="M166 64h-126l110 205l-110 205h126l118 -205zM389 64h-126l110 205l-110 205h126l118 -205z" />
    <glyph glyph-name="ellipsis" unicode="&#x2026;" horiz-adv-x="1000" 
d="M97 0v140h140v-140h-140zM430 0v140h140v-140h-140zM763 0v140h140v-140h-140z" />
    <glyph glyph-name="perthousand" unicode="&#x2030;" horiz-adv-x="1000" 
d="M151 436q18 0 28 8.5t14.5 23t5.5 32.5t1 37t-1 37t-5.5 32t-14.5 23t-28 9q-19 0 -29 -9t-14.5 -23t-5.5 -32t-1 -37t1 -37t5.5 -32.5t14.5 -23t29 -8.5zM151 364q-41 0 -68.5 14t-44 38t-23 56t-6.5 68q0 37 6.5 68t23 53.5t44 35.5t68.5 13t68 -13t43.5 -35.5
t23 -53.5t6.5 -68q0 -36 -6.5 -68t-23 -56t-43.5 -38t-68 -14zM515 60q18 0 28 8.5t14.5 23t5.5 32.5t1 37t-1 37t-5.5 32t-14.5 23t-28 9q-19 0 -29 -9t-14.5 -23t-5.5 -32t-1 -37t1 -37t5.5 -32.5t14.5 -23t29 -8.5zM515 -12q-41 0 -68.5 14t-44 38t-23 56t-6.5 68
q0 37 6.5 68t23 53.5t44 35.5t68.5 13t68 -13t43.5 -35.5t23 -53.5t6.5 -68q0 -36 -6.5 -68t-23 -56t-43.5 -38t-68 -14zM851 -12q-41 0 -68.5 14t-44 38t-23 56t-6.5 68q0 37 6.5 68t23 53.5t44 35.5t68.5 13t68 -13t43.5 -35.5t23 -53.5t6.5 -68q0 -36 -6.5 -68t-23 -56
t-43.5 -38t-68 -14zM851 60q18 0 28 8.5t14.5 23t5.5 32.5t1 37t-1 37t-5.5 32t-14.5 23t-28 9q-19 0 -29 -9t-14.5 -23t-5.5 -32t-1 -37t1 -37t5.5 -32.5t14.5 -23t29 -8.5zM502 720h82l-429 -742h-82z" />
    <glyph glyph-name="questiondown" unicode="&#xbf;" horiz-adv-x="500" 
d="M450 -162q-46 -20 -97.5 -26.5t-100.5 -6.5q-44 0 -85 10t-73 31.5t-51 55.5t-19 82q0 35 13.5 63.5t33.5 54t42.5 49t41.5 48.5t30.5 52t8.5 60h123q0 -35 -6 -63t-16.5 -50.5t-23.5 -40.5t-27 -33t-27 -29t-23.5 -28.5t-17 -30.5t-6.5 -36q0 -26 10.5 -43.5t27 -28
t37 -15t40.5 -4.5q40 0 79.5 10.5t74.5 29.5zM324 375h-140v140h140v-140z" />
    <glyph glyph-name="grave" unicode="`" horiz-adv-x="278" 
d="M249 585h-83l-137 146h137z" />
    <glyph glyph-name="acute" unicode="&#xb4;" horiz-adv-x="278" 
d="M112 731h137l-137 -146h-83z" />
    <glyph glyph-name="circumflex" unicode="&#x2c6;" horiz-adv-x="278" 
d="M192 731l105 -146h-89l-68 86l-70 -86h-89l110 146h101z" />
    <glyph glyph-name="tilde" unicode="&#x2dc;" horiz-adv-x="278" 
d="M-38 603q0 22 7.5 44t21 39t32.5 27.5t41 10.5t41.5 -6t39.5 -14t36.5 -15t36.5 -7q23 0 33.5 14.5t10.5 34.5h54q0 -25 -6.5 -47t-19 -38.5t-30.5 -26t-41 -9.5q-28 0 -47 5t-39 13q-19 8 -36.5 13.5t-31.5 5.5q-26 0 -37.5 -15t-11.5 -29h-54z" />
    <glyph glyph-name="macron" unicode="&#xaf;" horiz-adv-x="278" 
d="M-5 618v80h288v-80h-288z" />
    <glyph glyph-name="breve" unicode="&#x2d8;" horiz-adv-x="278" 
d="M38 730q8 -38 34 -59t66 -21t66.5 21t35.5 59h62q-2 -34 -15.5 -62t-35 -48t-50.5 -31t-63 -11q-33 0 -62 11t-51 31t-35 48t-14 62h62z" />
    <glyph glyph-name="dotaccent" unicode="&#x2d9;" horiz-adv-x="278" 
d="M81 609v116h116v-116h-116z" />
    <glyph glyph-name="dieresis" unicode="&#xa8;" horiz-adv-x="278" 
d="M300 725v-116h-116v116h116zM-22 609v116h116v-116h-116z" />
    <glyph glyph-name="ring" unicode="&#x2da;" horiz-adv-x="278" 
d="M33 685q0 22 8.5 41.5t23 34t34 23t41.5 8.5t41.5 -8.5t33.5 -23t22.5 -34t8.5 -41.5q0 -45 -30.5 -75.5t-75.5 -30.5q-22 0 -41.5 8.5t-34 22.5t-23 33.5t-8.5 41.5zM87 685q0 -22 15 -37t38 -15q22 0 37 15t15 37q0 23 -15 38t-37 15q-23 0 -38 -15t-15 -38z" />
    <glyph glyph-name="cedilla" unicode="&#xb8;" horiz-adv-x="278" 
d="M95 -147q14 -5 31.5 -10t38.5 -5q19 0 36 7.5t17 27.5t-13.5 28t-30.5 8q-11 0 -22.5 -3t-19.5 -6l-15 26l59 74h63l-46 -53l2 -2q9 2 19.5 4t21.5 2q15 0 29 -4t25.5 -12.5t18.5 -21.5t7 -31q0 -29 -11 -49t-29 -32t-40.5 -17.5t-44.5 -5.5q-43 0 -69.5 6t-46.5 15z" />
    <glyph glyph-name="hungarumlaut" unicode="&#x2dd;" horiz-adv-x="278" 
d="M13 730h137l-137 -146h-83zM210 731h137l-137 -146h-83z" />
    <glyph glyph-name="ogonek" unicode="&#x2db;" horiz-adv-x="278" 
d="M230 0q-15 -11 -29.5 -24.5t-26.5 -28.5t-19.5 -32.5t-7.5 -37.5t9 -32.5t32 -12.5q16 0 31.5 10.5t24.5 22.5l40 -8q-19 -40 -46.5 -59.5t-78.5 -19.5q-44 0 -71 22.5t-27 67.5q0 24 12 44t30 36.5t39 29t39 22.5h49z" />
    <glyph glyph-name="caron" unicode="&#x2c7;" horiz-adv-x="278" 
d="M91 585l-110 146h89l70 -86l68 86h89l-105 -146h-101z" />
    <glyph glyph-name="emdash" unicode="&#x2014;" horiz-adv-x="1000" 
d="M0 315h1000v-92h-1000v92z" />
    <glyph glyph-name="AE" unicode="&#xc6;" horiz-adv-x="944" 
d="M480 594h-2l-173 -324h198zM391 698h499v-110h-271l14 -172h235v-110h-223l16 -196h233v-110h-369l-12 160h-268l-86 -160h-150z" />
    <glyph glyph-name="ordfeminine" unicode="&#xaa;" horiz-adv-x="361" 
d="M249 392l-3 42h-2q-12 -29 -38.5 -39.5t-55.5 -10.5q-20 0 -41.5 4.5t-39.5 15t-29.5 27.5t-11.5 41q0 37 16.5 59.5t42.5 34t57.5 15t60.5 3.5h37q0 40 -19.5 53t-53.5 13q-28 0 -55 -8.5t-50 -22.5v66q25 13 57 19t63 6q75 0 109.5 -30.5t34.5 -105.5q0 -48 1 -94.5
t4 -87.5h-84zM114 477q0 -10 5.5 -16.5t13 -10t16.5 -5t17 -1.5q38 0 57.5 25.5t19.5 60.5h-30q-14 0 -31.5 -1t-32.5 -6t-25 -15.5t-10 -30.5z" />
    <glyph glyph-name="Lslash" unicode="&#x141;" horiz-adv-x="500" 
d="M81 243l-73 -44v92l73 44v363h140v-280l168 100v-92l-168 -100v-216h271v-110h-411v243z" />
    <glyph glyph-name="Oslash" unicode="&#xd8;" horiz-adv-x="778" 
d="M509 556q-23 20 -52.5 32t-67.5 12q-52 0 -89 -21.5t-61 -57t-35 -80t-11 -90.5q0 -42 8.5 -83t26.5 -74zM264 146q23 -23 53.5 -35.5t71.5 -12.5q54 0 91 22t60.5 57.5t34 81t10.5 92.5q0 43 -9.5 84t-29.5 74zM686 690l-54 -70q49 -48 74 -116.5t25 -152.5
q0 -79 -22.5 -145.5t-66 -115t-107 -75.5t-146.5 -27q-63 0 -113.5 14.5t-90.5 42.5l-57 -74l-45 36l59 76q-48 47 -71.5 115t-23.5 153q0 80 22 146t65.5 113.5t107.5 73.5t147 26q60 0 109 -13.5t89 -39.5l54 70z" />
    <glyph glyph-name="OE" unicode="&#x152;" horiz-adv-x="944" 
d="M490 588q-16 2 -34 4t-40 2q-53 0 -94.5 -18t-70 -50.5t-43.5 -78.5t-15 -102q0 -51 14.5 -95t43 -76.5t71 -51t98.5 -18.5q23 0 39 2t31 4v478zM890 588h-260v-172h238v-110h-238v-196h264v-110h-265q-57 0 -112 -3q-28 -1 -55.5 -2t-56.5 -1q-43 0 -86 5.5t-83 20
t-74.5 40t-60 64.5t-40 93.5t-14.5 127.5q0 90 26.5 157.5t76 112t118.5 67t155 22.5q52 0 103 -3q26 -1 51.5 -2t51.5 -1h261v-110z" />
    <glyph glyph-name="ordmasculine" unicode="&#xba;" horiz-adv-x="397" 
d="M200 710q36 0 68 -11.5t56 -32.5t38 -51t14 -67q0 -38 -14 -68.5t-38 -51.5t-56 -32.5t-69 -11.5t-69.5 11.5t-56.5 32.5t-38 51.5t-14 68.5q0 37 14.5 67t39.5 51t57 32.5t68 11.5zM202 650q-23 0 -39 -8.5t-25.5 -22.5t-14 -32.5t-4.5 -38.5q0 -21 3.5 -40t12.5 -33
t25 -22.5t40 -8.5t39 9t23.5 23.5t12 33t3.5 38.5q0 18 -4 36.5t-13 33t-23.5 23.5t-35.5 9z" />
    <glyph glyph-name="ae" unicode="&#xe6;" horiz-adv-x="889" 
d="M725 308q0 24 -6 45.5t-19 38.5t-32.5 27t-47.5 10q-30 0 -52.5 -9.5t-37.5 -26t-23 -38.5t-8 -47h226zM818 29q-37 -20 -80 -30.5t-97 -10.5q-31 0 -62 4.5t-59 15.5t-52.5 29t-42.5 44q-15 -24 -36.5 -42t-47 -29.5t-53.5 -17t-55 -4.5q-37 0 -72.5 8t-63 26.5
t-44.5 47.5t-17 71q0 53 23.5 87.5t61 54.5t83.5 27.5t90 7.5h77q0 55 -25.5 83.5t-93.5 28.5q-43 0 -84 -15.5t-75 -41.5l-4 115q39 18 88 28.5t95 10.5q27 0 51 -2.5t45 -9t40.5 -19.5t38.5 -34q29 31 71.5 48t104.5 17q69 0 113.5 -26t70.5 -69.5t36 -99.5t10 -116h-354
q0 -32 11.5 -56t31.5 -40.5t47 -25t58 -8.5q49 0 91 15.5t80 36.5v-109zM164 141q0 -23 20 -39t56 -16q72 0 101.5 37.5t29.5 114.5h-58q-24 0 -50 -4t-48 -14.5t-36.5 -29.5t-14.5 -49z" />
    <glyph glyph-name="dotlessi" unicode="&#x131;" horiz-adv-x="278" 
d="M72 0v515h134v-515h-134z" />
    <glyph glyph-name="lslash" unicode="&#x142;" horiz-adv-x="278" 
d="M72 293l-72 -43v92l72 43v365h134v-285l72 43v-92l-72 -43v-373h-134v293z" />
    <glyph glyph-name="oslash" unicode="&#xf8;" horiz-adv-x="611" 
d="M384 396q-14 12 -34 19.5t-45 7.5q-33 0 -57 -13t-40 -34.5t-24 -49t-8 -56.5q0 -26 4 -52.5t14 -49.5zM224 122q15 -14 35 -22t46 -8q39 0 64 15.5t39.5 41t20.5 57.5t6 64q0 46 -18 84zM553 517l-54 -65q36 -35 56 -85t20 -113q0 -56 -18 -104.5t-52.5 -84.5t-85 -56.5
t-114.5 -20.5q-47 0 -86 11.5t-71 31.5l-55 -66l-41 33l56 67q-35 35 -53.5 83.5t-18.5 105.5q0 64 20.5 114.5t57 85.5t85.5 54t106 19q45 0 83.5 -11t70.5 -31l54 65z" />
    <glyph glyph-name="oe" unicode="&#x153;" horiz-adv-x="944" 
d="M176 257q0 -31 6.5 -61.5t21.5 -55t39.5 -39.5t61.5 -15t62.5 14.5t41 38t22.5 54t7 62.5t-6.5 63.5t-22.5 56t-41.5 39.5t-62.5 15q-35 0 -59 -16t-40 -41t-23 -55.5t-7 -59.5zM572 216q2 -66 42 -98t101 -32q42 0 80.5 13t72.5 38l4 -109q-6 -4 -18.5 -10.5t-32 -13
t-47 -11.5t-63.5 -5q-33 0 -63.5 3.5t-57.5 13.5t-49.5 26t-38.5 42q-20 -27 -44.5 -44t-50.5 -26t-52.5 -12t-49.5 -3q-64 0 -114 20.5t-84.5 56.5t-52.5 84.5t-18 104.5q0 64 20.5 114.5t57 85.5t85.5 54t106 19q60 0 110 -21.5t82 -66.5q30 45 78.5 66.5t101.5 21.5
q70 0 115 -26t70.5 -69t35.5 -99t10 -117h-336zM780 308q-1 24 -6.5 46t-17.5 38.5t-31.5 26.5t-46.5 10q-26 0 -45.5 -10t-33 -27t-20.5 -39t-7 -45h208z" />
    <glyph glyph-name="germandbls" unicode="&#xdf;" horiz-adv-x="611" 
d="M72 0v505q0 57 15.5 104t46 81t76.5 53t108 19q42 0 82.5 -11.5t72.5 -34.5t52 -57.5t20 -80.5q0 -68 -33.5 -114t-99.5 -63v-2q37 -5 68.5 -21t53.5 -40.5t34.5 -56t12.5 -66.5q0 -51 -17.5 -92t-49 -69.5t-74 -44t-93.5 -15.5q-28 0 -49 4t-38 7l4 104q13 -5 30 -8
t40 -3q14 0 32.5 4.5t35 18.5t28 39.5t11.5 68.5q0 34 -12.5 55.5t-34.5 34.5t-50.5 18t-59.5 5v104q56 0 88.5 26t32.5 83q0 42 -21.5 72.5t-67.5 30.5q-29 0 -50 -12.5t-34.5 -33t-19.5 -46t-6 -50.5v-516h-134z" />
    <glyph glyph-name="onesuperior" unicode="&#xb9;" horiz-adv-x="361" 
d="M151 704h94v-422h-104v320l-77 -59l-52 61z" />
    <glyph glyph-name="logicalnot" unicode="&#xac;" horiz-adv-x="600" 
d="M450 310h-404v104h508v-306h-104v202z" />
    <glyph glyph-name="mu" unicode="&#xb5;" horiz-adv-x="611" 
d="M69 515h134v-275q0 -24 1.5 -50t9.5 -47.5t26 -36t50 -14.5q36 0 59 17.5t36 43.5t18 55.5t5 54.5v252h134v-515h-127v70h-2q-6 -14 -16.5 -28.5t-25.5 -26.5t-32.5 -19.5t-36.5 -7.5q-24 0 -49.5 5t-47.5 29h-2v-232h-134v725z" />
    <glyph glyph-name="trademark" unicode="&#x2122;" horiz-adv-x="1000" 
d="M465 698h145l99 -260l98 260h145v-416h-98v294h-2l-106 -294h-75l-106 294h-2v-294h-98v416zM165 618h-117v80h338v-80h-117v-336h-104v336z" />
    <glyph glyph-name="Eth" unicode="&#xd0;" horiz-adv-x="722" 
d="M81 336h-64v86h64v276h191q80 0 153 -15.5t128.5 -55t88.5 -107t33 -171.5t-33 -171.5t-88.5 -107t-128.5 -55t-153 -15.5h-191v336zM221 110h78q44 0 85.5 16t73.5 46.5t51.5 75t19.5 101.5t-19.5 101.5t-51.5 75t-73.5 46.5t-85.5 16h-78v-166h146v-86h-146v-226z" />
    <glyph glyph-name="onehalf" unicode="&#xbd;" horiz-adv-x="834" 
d="M551 720h82l-417 -742h-82zM149 704h94v-422h-104v320l-77 -60l-52 61zM499 82q15 5 46 29.5t62 56.5q31 33 53.5 66.5t22.5 55.5q0 52 -61 52q-57 0 -105 -34l-7 87q31 17 65.5 25t69.5 8q32 0 60 -7t49 -22.5t33 -40t12 -59.5q0 -30 -17.5 -62.5t-43.5 -62.5
q-27 -30 -56.5 -53t-51.5 -33v-2h171v-86h-302v82z" />
    <glyph glyph-name="plusminus" unicode="&#xb1;" horiz-adv-x="600" 
d="M248 506h104v-132h202v-104h-202v-133h-104v133h-202v104h202v132zM46 104h508v-104h-508v104z" />
    <glyph glyph-name="Thorn" unicode="&#xde;" 
d="M69 0v698h140v-116h37q57 0 109.5 -9.5t93 -33.5t64.5 -65t24 -104q0 -61 -21 -103t-57.5 -68.5t-85.5 -38t-105 -11.5h-59v-149h-140zM209 259h49q26 0 50 5t42.5 17t29.5 32t11 50t-10.5 51t-29 34t-42.5 18.5t-51 5.5h-49v-213z" />
    <glyph glyph-name="onequarter" unicode="&#xbc;" horiz-adv-x="834" 
d="M656 159v171h-2l-114 -171h116zM455 164l180 258h125v-263h48v-80h-48v-79h-104v79h-201v85zM581 720h82l-417 -742h-82zM159 704h94v-422h-104v320l-77 -59l-52 61z" />
    <glyph glyph-name="divide" unicode="&#xf7;" horiz-adv-x="600" 
d="M46 201v104h508v-104h-508zM300 529q35 0 56 -21.5t21 -55.5t-21 -55.5t-56 -21.5t-56 21.5t-21 55.5t21 55.5t56 21.5zM300 -23q-35 0 -56 21.5t-21 55.5t21 55.5t56 21.5t56 -21.5t21 -55.5t-21 -55.5t-56 -21.5z" />
    <glyph glyph-name="brokenbar" unicode="&#xa6;" horiz-adv-x="222" 
d="M163 675v-350h-104v350h104zM163 175v-350h-104v350h104z" />
    <glyph glyph-name="degree" unicode="&#xb0;" horiz-adv-x="400" 
d="M200 637q-39 0 -63.5 -24.5t-24.5 -63.5t24.5 -63.5t63.5 -24.5t63.5 24.5t24.5 63.5t-24.5 63.5t-63.5 24.5zM200 710q33 0 62.5 -12.5t51.5 -34.5t34.5 -51.5t12.5 -62.5q0 -34 -12.5 -63.5t-34 -51t-51 -34t-63.5 -12.5q-35 0 -64.5 12t-51 33.5t-33.5 51t-12 64.5
q0 33 12.5 62.5t34.5 51.5t51.5 34.5t62.5 12.5z" />
    <glyph glyph-name="thorn" unicode="&#xfe;" horiz-adv-x="611" 
d="M69 750h134v-302h2q19 32 56.5 55.5t97.5 23.5q59 0 100.5 -22t67 -59t37 -85.5t11.5 -101.5t-11.5 -102t-37 -86.5t-67 -60t-100.5 -22.5q-58 0 -94 19.5t-60 50.5h-2v-268h-134v960zM324 423q-32 0 -55 -15.5t-37.5 -39.5t-21 -53t-6.5 -56t6 -56.5t19.5 -54
t36.5 -40.5t56 -16t55 16t34.5 41t18 54t5.5 56q0 26 -5 55t-18 53t-34 40t-54 16z" />
    <glyph glyph-name="threequarters" unicode="&#xbe;" horiz-adv-x="834" 
d="M668 330h-2l-112 -171h114v171zM772 0h-104v79h-201v85l180 258h125v-263h48v-80h-48v-79zM593 720h82l-417 -742h-82zM29 686q35 12 66 18t63 6q24 0 52 -5t51.5 -17t39.5 -31.5t16 -49.5q0 -40 -20.5 -67t-62.5 -38v-2q44 -3 66.5 -30.5t22.5 -65.5q0 -35 -17 -59.5
t-44 -39.5t-59.5 -22t-62.5 -7q-29 0 -60 4t-66 13l5 83q31 -9 56.5 -14.5t57.5 -5.5q14 0 28.5 3t26 9.5t18.5 16t7 22.5q0 14 -7 23.5t-18.5 15t-25.5 8t-28 2.5q-37 0 -56 -3v84q12 1 25 0t33 -1q13 0 26.5 2.5t24.5 8.5t18.5 15t7.5 22q0 26 -21.5 36t-48.5 10
q-25 0 -54.5 -6t-54.5 -20z" />
    <glyph glyph-name="twosuperior" unicode="&#xb2;" horiz-adv-x="361" 
d="M30 282v82q15 5 46 29.5t62 56.5q31 33 53.5 66.5t22.5 55.5q0 52 -61 52q-57 0 -105 -34l-7 87q31 17 65.5 25t69.5 8q32 0 60 -7t49 -22.5t33 -40t12 -59.5q0 -30 -17.5 -62.5t-43.5 -62.5q-27 -30 -56.5 -53t-51.5 -33v-2h171v-86h-302z" />
    <glyph glyph-name="registered" unicode="&#xae;" horiz-adv-x="800" 
d="M39 349q0 75 28.5 140.5t77.5 114.5t114.5 77.5t140.5 28.5t140.5 -28.5t114.5 -77.5t77.5 -114.5t28.5 -140.5t-28.5 -140.5t-77.5 -114.5t-114.5 -77.5t-140.5 -28.5t-140.5 28.5t-114.5 77.5t-77.5 114.5t-28.5 140.5zM143 349q0 -63 20 -114.5t54.5 -88.5t81.5 -57.5
t101 -20.5t100.5 20.5t81.5 57.5t55 88.5t20 114.5q0 62 -20 114t-55 89t-81.5 57.5t-100.5 20.5t-101 -20.5t-81.5 -57.5t-54.5 -89t-20 -114zM255 551h151q76 0 118 -26.5t42 -93.5q0 -55 -29.5 -79t-76.5 -28l106 -174h-88l-96 170h-41v-170h-86v401zM411 386q15 0 28 2
t22 7.5t14 16t5 27.5q0 15 -7.5 24.5t-19 14t-25 6t-26.5 1.5h-61v-99h70z" />
    <glyph glyph-name="minus" unicode="&#x2212;" horiz-adv-x="600" 
d="M46 201v104h508v-104h-508z" />
    <glyph glyph-name="eth" unicode="&#xf0;" horiz-adv-x="611" 
d="M307 411q-33 0 -58 -14.5t-41 -38t-24 -52t-8 -55.5t7 -55.5t22 -51.5t40 -37.5t61 -14.5q34 0 58 13.5t39 35.5t22 51t7 59q0 26 -7 54.5t-22 52t-39 38.5t-57 15zM228 648q-26 17 -51.5 28.5t-47.5 19.5l61 68q66 -24 127 -59l92 59l51 -47l-83 -53
q88 -68 141.5 -163.5t53.5 -218.5q0 -143 -69.5 -218.5t-197.5 -75.5q-64 0 -114 20.5t-84.5 56.5t-52.5 84.5t-18 104.5q-1 52 14.5 99t45.5 83t73.5 57.5t99.5 21.5q43 0 71.5 -8.5t51.5 -23.5h2q-17 35 -44.5 66.5t-61.5 57.5l-92 -60l-51 47z" />
    <glyph glyph-name="multiply" unicode="&#xd7;" horiz-adv-x="600" 
d="M66 415l72 72l162 -162l162 162l72 -72l-163 -162l163 -162l-72 -72l-162 163l-162 -163l-72 72l162 162z" />
    <glyph glyph-name="threesuperior" unicode="&#xb3;" horiz-adv-x="361" 
d="M41 686q35 12 66 18t63 6q24 0 52 -5t51.5 -17t39.5 -31.5t16 -49.5q0 -40 -20.5 -67t-62.5 -38v-2q44 -3 66.5 -30.5t22.5 -65.5q0 -35 -17 -59.5t-44 -39.5t-59.5 -22t-62.5 -7q-29 0 -60 4t-66 13l5 83q31 -9 56 -14.5t52 -5.5q14 0 28.5 3t26 9.5t18.5 16t7 22.5
q0 14 -6 23.5t-16 15t-23.5 8t-27.5 2.5q-37 0 -56 -3v84q12 1 25 0t33 -1q10 0 22.5 2.5t23.5 8.5t18 15t7 22q0 26 -18.5 36t-45.5 10q-25 0 -54.5 -6t-54.5 -20z" />
    <glyph glyph-name="copyright" unicode="&#xa9;" horiz-adv-x="800" 
d="M657 349q0 62 -20 114t-55 89t-81.5 57.5t-100.5 20.5t-101 -20.5t-81.5 -57.5t-54.5 -89t-20 -114q0 -63 20 -114.5t54.5 -88.5t81.5 -57.5t101 -20.5t100.5 20.5t81.5 57.5t55 88.5t20 114.5zM589 291q-6 -37 -22 -65t-39 -47.5t-52.5 -29.5t-61.5 -10
q-47 0 -84.5 16.5t-64 45t-41 67.5t-14.5 84q0 46 14 85t40 67.5t63.5 44.5t84.5 16q67 0 115 -38t59 -112h-80q-7 35 -33 52.5t-61 17.5q-51 0 -77.5 -36.5t-26.5 -95.5q0 -28 7.5 -52.5t21.5 -42.5t33.5 -28.5t43.5 -10.5q38 0 63 18.5t29 53.5h83zM39 349
q0 75 28.5 140.5t77.5 114.5t114.5 77.5t140.5 28.5t140.5 -28.5t114.5 -77.5t77.5 -114.5t28.5 -140.5t-28.5 -140.5t-77.5 -114.5t-114.5 -77.5t-140.5 -28.5t-140.5 28.5t-114.5 77.5t-77.5 114.5t-28.5 140.5z" />
    <glyph glyph-name="Aacute" unicode="&#xc1;" horiz-adv-x="722" 
d="M358 558h-2l-101 -288h204zM281 698h158l274 -698h-155l-60 160h-283l-61 -160h-145zM362 889h137l-137 -146h-83z" />
    <glyph glyph-name="Acircumflex" unicode="&#xc2;" horiz-adv-x="722" 
d="M358 558h-2l-101 -288h204zM281 698h158l274 -698h-155l-60 160h-283l-61 -160h-145zM414 889l105 -146h-89l-68 86l-70 -86h-89l110 146h101z" />
    <glyph glyph-name="Adieresis" unicode="&#xc4;" horiz-adv-x="722" 
d="M358 558h-2l-101 -288h204zM281 698h158l274 -698h-155l-60 160h-283l-61 -160h-145zM522 883v-116h-116v116h116zM200 767v116h116v-116h-116z" />
    <glyph glyph-name="Agrave" unicode="&#xc0;" horiz-adv-x="722" 
d="M358 558h-2l-101 -288h204zM281 698h158l274 -698h-155l-60 160h-283l-61 -160h-145zM443 743h-83l-137 146h137z" />
    <glyph glyph-name="Aring" unicode="&#xc5;" horiz-adv-x="722" 
d="M358 558h-2l-101 -288h204zM281 698h158l274 -698h-155l-60 160h-283l-61 -160h-145zM255 828q0 22 8.5 41.5t23 34t34 23t41.5 8.5t41.5 -8.5t33.5 -23t22.5 -34t8.5 -41.5q0 -45 -30.5 -75.5t-75.5 -30.5q-22 0 -41.5 8.5t-34 22.5t-23 33.5t-8.5 41.5zM309 828
q0 -22 15 -37t38 -15q22 0 37 15t15 37q0 23 -15 38t-37 15q-23 0 -38 -15t-15 -38z" />
    <glyph glyph-name="Atilde" unicode="&#xc3;" horiz-adv-x="722" 
d="M358 558h-2l-101 -288h204zM281 698h158l274 -698h-155l-60 160h-283l-61 -160h-145zM184 761q0 22 7.5 44t21 39t32.5 27.5t41 10.5t41.5 -6t39.5 -14t36.5 -15t36.5 -7q23 0 33.5 14.5t10.5 34.5h54q0 -25 -6.5 -47t-19 -38.5t-30.5 -26t-41 -9.5q-28 0 -47 5t-39 13
q-19 8 -36.5 13.5t-31.5 5.5q-26 0 -37.5 -15t-11.5 -29h-54z" />
    <glyph glyph-name="Ccedilla" unicode="&#xc7;" horiz-adv-x="611" 
d="M589 10q-38 -9 -78.5 -15.5t-80.5 -6.5q-10 0 -14 1l-36 -42l2 -2q9 2 19.5 4t21.5 2q15 0 29 -4t25.5 -12.5t18.5 -21.5t7 -31q0 -29 -11 -49t-29 -32t-40.5 -17.5t-44.5 -5.5q-43 0 -69.5 6t-46.5 15l20 54q14 -5 31.5 -10t38.5 -5q19 0 36 7.5t17 27.5t-13.5 28
t-30.5 8q-11 0 -22.5 -3t-19.5 -6l-15 26l54 68q-70 7 -127.5 32t-98 68t-63 103.5t-22.5 139.5q0 90 26.5 159.5t76 117t120.5 72t160 24.5q35 0 77.5 -7t80.5 -22l-10 -118q-40 23 -76.5 30t-74.5 7q-54 0 -97.5 -19.5t-73.5 -53.5t-46.5 -80t-16.5 -100q0 -53 16 -98.5
t46.5 -79t74.5 -52.5t100 -19q42 0 85 8t68 21z" />
    <glyph glyph-name="Eacute" unicode="&#xc9;" 
d="M81 698h412v-110h-272v-172h249v-110h-249v-196h274v-110h-414v698zM279 889h137l-137 -146h-83z" />
    <glyph glyph-name="Ecircumflex" unicode="&#xca;" 
d="M81 698h412v-110h-272v-172h249v-110h-249v-196h274v-110h-414v698zM331 889l105 -146h-89l-68 86l-70 -86h-89l110 146h101z" />
    <glyph glyph-name="Edieresis" unicode="&#xcb;" 
d="M81 698h412v-110h-272v-172h249v-110h-249v-196h274v-110h-414v698zM439 883v-116h-116v116h116zM117 767v116h116v-116h-116z" />
    <glyph glyph-name="Egrave" unicode="&#xc8;" 
d="M81 698h412v-110h-272v-172h249v-110h-249v-196h274v-110h-414v698zM360 743h-83l-137 146h137z" />
    <glyph glyph-name="Iacute" unicode="&#xcd;" horiz-adv-x="278" 
d="M69 698h140v-698h-140v698zM140 889h137l-137 -146h-83z" />
    <glyph glyph-name="Icircumflex" unicode="&#xce;" horiz-adv-x="278" 
d="M69 698h140v-698h-140v698zM192 889l105 -146h-89l-68 86l-70 -86h-89l110 146h101z" />
    <glyph glyph-name="Idieresis" unicode="&#xcf;" horiz-adv-x="278" 
d="M69 698h140v-698h-140v698zM300 883v-116h-116v116h116zM-22 767v116h116v-116h-116z" />
    <glyph glyph-name="Igrave" unicode="&#xcc;" horiz-adv-x="278" 
d="M69 698h140v-698h-140v698zM221 743h-83l-137 146h137z" />
    <glyph glyph-name="Ntilde" unicode="&#xd1;" horiz-adv-x="722" 
d="M74 698h172l266 -522h2v522h134v-698h-171l-267 522h-2v-522h-134v698zM184 761q0 22 7.5 44t21 39t32.5 27.5t41 10.5t41.5 -6t39.5 -14t36.5 -15t36.5 -7q23 0 33.5 14.5t10.5 34.5h54q0 -25 -6.5 -47t-19 -38.5t-30.5 -26t-41 -9.5q-28 0 -47 5t-39 13
q-19 8 -36.5 13.5t-31.5 5.5q-26 0 -37.5 -15t-11.5 -29h-54z" />
    <glyph glyph-name="Oacute" unicode="&#xd3;" horiz-adv-x="778" 
d="M47 351q0 80 22 146t65.5 113.5t107.5 73.5t147 26q82 0 146 -26.5t107.5 -74t66 -113.5t22.5 -145t-22.5 -145.5t-66 -115t-107 -75.5t-146.5 -27q-84 0 -148 26.5t-107 74.5t-65 115t-22 147zM193 351q0 -47 10.5 -92.5t34 -81t60.5 -57.5t91 -22t91 22t60.5 57.5
t34 81t10.5 92.5q0 46 -11 90.5t-35 80t-61 57t-89 21.5t-89 -21.5t-61 -57t-35 -80t-11 -90.5zM390 889h137l-137 -146h-83z" />
    <glyph glyph-name="Ocircumflex" unicode="&#xd4;" horiz-adv-x="778" 
d="M47 351q0 80 22 146t65.5 113.5t107.5 73.5t147 26q82 0 146 -26.5t107.5 -74t66 -113.5t22.5 -145t-22.5 -145.5t-66 -115t-107 -75.5t-146.5 -27q-84 0 -148 26.5t-107 74.5t-65 115t-22 147zM193 351q0 -47 10.5 -92.5t34 -81t60.5 -57.5t91 -22t91 22t60.5 57.5
t34 81t10.5 92.5q0 46 -11 90.5t-35 80t-61 57t-89 21.5t-89 -21.5t-61 -57t-35 -80t-11 -90.5zM442 889l105 -146h-89l-68 86l-70 -86h-89l110 146h101z" />
    <glyph glyph-name="Odieresis" unicode="&#xd6;" horiz-adv-x="778" 
d="M47 351q0 80 22 146t65.5 113.5t107.5 73.5t147 26q82 0 146 -26.5t107.5 -74t66 -113.5t22.5 -145t-22.5 -145.5t-66 -115t-107 -75.5t-146.5 -27q-84 0 -148 26.5t-107 74.5t-65 115t-22 147zM193 351q0 -47 10.5 -92.5t34 -81t60.5 -57.5t91 -22t91 22t60.5 57.5
t34 81t10.5 92.5q0 46 -11 90.5t-35 80t-61 57t-89 21.5t-89 -21.5t-61 -57t-35 -80t-11 -90.5zM550 883v-116h-116v116h116zM228 767v116h116v-116h-116z" />
    <glyph glyph-name="Ograve" unicode="&#xd2;" horiz-adv-x="778" 
d="M47 351q0 80 22 146t65.5 113.5t107.5 73.5t147 26q82 0 146 -26.5t107.5 -74t66 -113.5t22.5 -145t-22.5 -145.5t-66 -115t-107 -75.5t-146.5 -27q-84 0 -148 26.5t-107 74.5t-65 115t-22 147zM193 351q0 -47 10.5 -92.5t34 -81t60.5 -57.5t91 -22t91 22t60.5 57.5
t34 81t10.5 92.5q0 46 -11 90.5t-35 80t-61 57t-89 21.5t-89 -21.5t-61 -57t-35 -80t-11 -90.5zM471 743h-83l-137 146h137z" />
    <glyph glyph-name="Otilde" unicode="&#xd5;" horiz-adv-x="778" 
d="M47 351q0 80 22 146t65.5 113.5t107.5 73.5t147 26q82 0 146 -26.5t107.5 -74t66 -113.5t22.5 -145t-22.5 -145.5t-66 -115t-107 -75.5t-146.5 -27q-84 0 -148 26.5t-107 74.5t-65 115t-22 147zM193 351q0 -47 10.5 -92.5t34 -81t60.5 -57.5t91 -22t91 22t60.5 57.5
t34 81t10.5 92.5q0 46 -11 90.5t-35 80t-61 57t-89 21.5t-89 -21.5t-61 -57t-35 -80t-11 -90.5zM212 761q0 22 7.5 44t21 39t32.5 27.5t41 10.5t41.5 -6t39.5 -14t36.5 -15t36.5 -7q23 0 33.5 14.5t10.5 34.5h54q0 -25 -6.5 -47t-19 -38.5t-30.5 -26t-41 -9.5q-28 0 -47 5
t-39 13q-19 8 -36.5 13.5t-31.5 5.5q-26 0 -37.5 -15t-11.5 -29h-54z" />
    <glyph glyph-name="Scaron" unicode="&#x160;" 
d="M456 570q-33 14 -69 22t-73 8q-18 0 -37.5 -4.5t-35.5 -15.5t-26.5 -30t-10.5 -47q0 -30 22.5 -48t56.5 -32.5t74 -29t74 -38.5t56.5 -61t22.5 -95q0 -57 -21 -97.5t-57 -65.5t-83.5 -36.5t-100.5 -11.5q-29 0 -50.5 2t-41.5 5.5t-40.5 8.5t-46.5 11l13 126
q36 -20 76 -31.5t82 -11.5q20 0 42 5t40 16t30 28t12 41q0 33 -22.5 53t-56.5 35t-74 30t-74 38t-56.5 59t-22.5 94t21 99t55 66t78 36.5t90 11.5q92 0 167 -25zM230 743l-110 146h89l70 -86l68 86h89l-105 -146h-101z" />
    <glyph glyph-name="Uacute" unicode="&#xda;" horiz-adv-x="722" 
d="M76 698h140v-403q0 -45 7.5 -81t25 -62t45 -40t67.5 -14t67.5 14t45 40t25 62t7.5 81v403h140v-446q0 -70 -19.5 -120t-56 -82t-89.5 -47t-120 -15t-120 15t-89.5 47t-56 82t-19.5 120v446zM362 889h137l-137 -146h-83z" />
    <glyph glyph-name="Ucircumflex" unicode="&#xdb;" horiz-adv-x="722" 
d="M76 698h140v-403q0 -45 7.5 -81t25 -62t45 -40t67.5 -14t67.5 14t45 40t25 62t7.5 81v403h140v-446q0 -70 -19.5 -120t-56 -82t-89.5 -47t-120 -15t-120 15t-89.5 47t-56 82t-19.5 120v446zM414 889l105 -146h-89l-68 86l-70 -86h-89l110 146h101z" />
    <glyph glyph-name="Udieresis" unicode="&#xdc;" horiz-adv-x="722" 
d="M76 698h140v-403q0 -45 7.5 -81t25 -62t45 -40t67.5 -14t67.5 14t45 40t25 62t7.5 81v403h140v-446q0 -70 -19.5 -120t-56 -82t-89.5 -47t-120 -15t-120 15t-89.5 47t-56 82t-19.5 120v446zM522 883v-116h-116v116h116zM200 767v116h116v-116h-116z" />
    <glyph glyph-name="Ugrave" unicode="&#xd9;" horiz-adv-x="722" 
d="M76 698h140v-403q0 -45 7.5 -81t25 -62t45 -40t67.5 -14t67.5 14t45 40t25 62t7.5 81v403h140v-446q0 -70 -19.5 -120t-56 -82t-89.5 -47t-120 -15t-120 15t-89.5 47t-56 82t-19.5 120v446zM443 743h-83l-137 146h137z" />
    <glyph glyph-name="Yacute" unicode="&#xdd;" horiz-adv-x="667" 
d="M266 276l-255 422h164l165 -293l168 293h148l-250 -422v-276h-140v276zM335 889h137l-137 -146h-83z" />
    <glyph glyph-name="Ydieresis" unicode="&#x178;" horiz-adv-x="667" 
d="M266 276l-255 422h164l165 -293l168 293h148l-250 -422v-276h-140v276zM495 883v-116h-116v116h116zM173 767v116h116v-116h-116z" />
    <glyph glyph-name="Zcaron" unicode="&#x17d;" 
d="M36 114l328 474h-315v110h464v-114l-331 -474h338v-110h-484v114zM230 743l-110 146h89l70 -86l68 86h89l-105 -146h-101z" />
    <glyph glyph-name="aacute" unicode="&#xe1;" 
d="M92 488q39 18 87.5 28.5t91.5 10.5q118 0 170 -51.5t52 -165.5v-66q0 -39 0.5 -69.5t1.5 -59.5t2.5 -57t3.5 -58h-118q-4 20 -4.5 42.5t-1.5 34.5h-2q-12 -21 -29.5 -38t-38.5 -28t-44.5 -17t-46.5 -6q-34 0 -66.5 10t-57.5 29.5t-40.5 48t-15.5 65.5q0 58 25 93t63 54
t84.5 24.5t88.5 5.5h74q0 63 -28 87t-88 24q-43 0 -84 -15t-75 -41zM164 149q0 -33 24.5 -48t60.5 -15q31 0 54.5 12.5t39.5 33.5q17 22 22.5 49t5.5 57h-58q-23 0 -49 -3t-48 -12t-37 -26.5t-15 -47.5zM287 731h137l-137 -146h-83z" />
    <glyph glyph-name="acircumflex" unicode="&#xe2;" 
d="M92 488q39 18 87.5 28.5t91.5 10.5q118 0 170 -51.5t52 -165.5v-66q0 -39 0.5 -69.5t1.5 -59.5t2.5 -57t3.5 -58h-118q-4 20 -4.5 42.5t-1.5 34.5h-2q-12 -21 -29.5 -38t-38.5 -28t-44.5 -17t-46.5 -6q-34 0 -66.5 10t-57.5 29.5t-40.5 48t-15.5 65.5q0 58 25 93t63 54
t84.5 24.5t88.5 5.5h74q0 63 -28 87t-88 24q-43 0 -84 -15t-75 -41zM164 149q0 -33 24.5 -48t60.5 -15q31 0 54.5 12.5t39.5 33.5q17 22 22.5 49t5.5 57h-58q-23 0 -49 -3t-48 -12t-37 -26.5t-15 -47.5zM331 731l105 -146h-89l-68 86l-70 -86h-89l110 146h101z" />
    <glyph glyph-name="adieresis" unicode="&#xe4;" 
d="M92 488q39 18 87.5 28.5t91.5 10.5q118 0 170 -51.5t52 -165.5v-66q0 -39 0.5 -69.5t1.5 -59.5t2.5 -57t3.5 -58h-118q-4 20 -4.5 42.5t-1.5 34.5h-2q-12 -21 -29.5 -38t-38.5 -28t-44.5 -17t-46.5 -6q-34 0 -66.5 10t-57.5 29.5t-40.5 48t-15.5 65.5q0 58 25 93t63 54
t84.5 24.5t88.5 5.5h74q0 63 -28 87t-88 24q-43 0 -84 -15t-75 -41zM164 149q0 -33 24.5 -48t60.5 -15q31 0 54.5 12.5t39.5 33.5q17 22 22.5 49t5.5 57h-58q-23 0 -49 -3t-48 -12t-37 -26.5t-15 -47.5zM439 725v-116h-116v116h116zM117 609v116h116v-116h-116z" />
    <glyph glyph-name="agrave" unicode="&#xe0;" 
d="M92 488q39 18 87.5 28.5t91.5 10.5q118 0 170 -51.5t52 -165.5v-66q0 -39 0.5 -69.5t1.5 -59.5t2.5 -57t3.5 -58h-118q-4 20 -4.5 42.5t-1.5 34.5h-2q-12 -21 -29.5 -38t-38.5 -28t-44.5 -17t-46.5 -6q-34 0 -66.5 10t-57.5 29.5t-40.5 48t-15.5 65.5q0 58 25 93t63 54
t84.5 24.5t88.5 5.5h74q0 63 -28 87t-88 24q-43 0 -84 -15t-75 -41zM164 149q0 -33 24.5 -48t60.5 -15q31 0 54.5 12.5t39.5 33.5q17 22 22.5 49t5.5 57h-58q-23 0 -49 -3t-48 -12t-37 -26.5t-15 -47.5zM343 585h-83l-137 146h137z" />
    <glyph glyph-name="aring" unicode="&#xe5;" 
d="M92 488q39 18 87.5 28.5t91.5 10.5q118 0 170 -51.5t52 -165.5v-66q0 -39 0.5 -69.5t1.5 -59.5t2.5 -57t3.5 -58h-118q-4 20 -4.5 42.5t-1.5 34.5h-2q-12 -21 -29.5 -38t-38.5 -28t-44.5 -17t-46.5 -6q-34 0 -66.5 10t-57.5 29.5t-40.5 48t-15.5 65.5q0 58 25 93t63 54
t84.5 24.5t88.5 5.5h74q0 63 -28 87t-88 24q-43 0 -84 -15t-75 -41zM164 149q0 -33 24.5 -48t60.5 -15q31 0 54.5 12.5t39.5 33.5q17 22 22.5 49t5.5 57h-58q-23 0 -49 -3t-48 -12t-37 -26.5t-15 -47.5zM172 685q0 22 8.5 41.5t23 34t34 23t41.5 8.5t41.5 -8.5t33.5 -23
t22.5 -34t8.5 -41.5q0 -45 -30.5 -75.5t-75.5 -30.5q-22 0 -41.5 8.5t-34 22.5t-23 33.5t-8.5 41.5zM226 685q0 -22 15 -37t38 -15q22 0 37 15t15 37q0 23 -15 38t-37 15q-23 0 -38 -15t-15 -38z" />
    <glyph glyph-name="atilde" unicode="&#xe3;" 
d="M92 488q39 18 87.5 28.5t91.5 10.5q118 0 170 -51.5t52 -165.5v-66q0 -39 0.5 -69.5t1.5 -59.5t2.5 -57t3.5 -58h-118q-4 20 -4.5 42.5t-1.5 34.5h-2q-12 -21 -29.5 -38t-38.5 -28t-44.5 -17t-46.5 -6q-34 0 -66.5 10t-57.5 29.5t-40.5 48t-15.5 65.5q0 58 25 93t63 54
t84.5 24.5t88.5 5.5h74q0 63 -28 87t-88 24q-43 0 -84 -15t-75 -41zM164 149q0 -33 24.5 -48t60.5 -15q31 0 54.5 12.5t39.5 33.5q17 22 22.5 49t5.5 57h-58q-23 0 -49 -3t-48 -12t-37 -26.5t-15 -47.5zM101 603q0 22 7.5 44t21 39t32.5 27.5t41 10.5t41.5 -6t39.5 -14
t36.5 -15t36.5 -7q23 0 33.5 14.5t10.5 34.5h54q0 -25 -6.5 -47t-19 -38.5t-30.5 -26t-41 -9.5q-28 0 -47 5t-39 13q-19 8 -36.5 13.5t-31.5 5.5q-26 0 -37.5 -15t-11.5 -29h-54z" />
    <glyph glyph-name="ccedilla" unicode="&#xe7;" horiz-adv-x="444" 
d="M403 404q-18 8 -39 13.5t-52 5.5q-63 0 -99.5 -45t-36.5 -118q0 -36 8.5 -66.5t25.5 -53t43.5 -35.5t61.5 -13q29 0 57.5 8t45.5 16l6 -111q-25 -8 -51.5 -11.5t-59.5 -4.5l-37 -42l2 -2q9 2 19.5 4t21.5 2q15 0 29 -4t25.5 -12.5t18.5 -21.5t7 -31q0 -29 -11 -49
t-29 -32t-40.5 -17.5t-44.5 -5.5q-43 0 -69.5 6t-46.5 15l20 54q14 -5 31.5 -10t38.5 -5q19 0 36 7.5t17 27.5t-13.5 28t-30.5 8q-11 0 -22.5 -3t-19.5 -6l-15 26l52 65q-54 6 -94.5 28t-67.5 57.5t-40.5 82.5t-13.5 101q0 56 16.5 104.5t48 84.5t78 57t106.5 21
q41 0 71.5 -4.5t58.5 -12.5z" />
    <glyph glyph-name="eacute" unicode="&#xe9;" 
d="M392 308q-2 24 -8.5 46t-19.5 38.5t-33 26.5t-48 10q-57 0 -85.5 -34.5t-33.5 -86.5h228zM482 29q-37 -20 -80 -30.5t-97 -10.5q-128 0 -198.5 69.5t-70.5 197.5q0 56 15 105.5t44.5 86.5t74.5 58.5t105 21.5q72 0 119 -23.5t75 -64.5t39.5 -98.5t11.5 -124.5h-356
q5 -63 44.5 -96.5t102.5 -33.5q49 0 91 15.5t80 36.5v-109zM287 731h137l-137 -146h-83z" />
    <glyph glyph-name="ecircumflex" unicode="&#xea;" 
d="M392 308q-2 24 -8.5 46t-19.5 38.5t-33 26.5t-48 10q-57 0 -85.5 -34.5t-33.5 -86.5h228zM482 29q-37 -20 -80 -30.5t-97 -10.5q-128 0 -198.5 69.5t-70.5 197.5q0 56 15 105.5t44.5 86.5t74.5 58.5t105 21.5q72 0 119 -23.5t75 -64.5t39.5 -98.5t11.5 -124.5h-356
q5 -63 44.5 -96.5t102.5 -33.5q49 0 91 15.5t80 36.5v-109zM331 731l105 -146h-89l-68 86l-70 -86h-89l110 146h101z" />
    <glyph glyph-name="edieresis" unicode="&#xeb;" 
d="M392 308q-2 24 -8.5 46t-19.5 38.5t-33 26.5t-48 10q-57 0 -85.5 -34.5t-33.5 -86.5h228zM482 29q-37 -20 -80 -30.5t-97 -10.5q-128 0 -198.5 69.5t-70.5 197.5q0 56 15 105.5t44.5 86.5t74.5 58.5t105 21.5q72 0 119 -23.5t75 -64.5t39.5 -98.5t11.5 -124.5h-356
q5 -63 44.5 -96.5t102.5 -33.5q49 0 91 15.5t80 36.5v-109zM439 725v-116h-116v116h116zM117 609v116h116v-116h-116z" />
    <glyph glyph-name="egrave" unicode="&#xe8;" 
d="M392 308q-2 24 -8.5 46t-19.5 38.5t-33 26.5t-48 10q-57 0 -85.5 -34.5t-33.5 -86.5h228zM482 29q-37 -20 -80 -30.5t-97 -10.5q-128 0 -198.5 69.5t-70.5 197.5q0 56 15 105.5t44.5 86.5t74.5 58.5t105 21.5q72 0 119 -23.5t75 -64.5t39.5 -98.5t11.5 -124.5h-356
q5 -63 44.5 -96.5t102.5 -33.5q49 0 91 15.5t80 36.5v-109zM343 585h-83l-137 146h137z" />
    <glyph glyph-name="iacute" unicode="&#xed;" horiz-adv-x="278" 
d="M72 0v515h134v-515h-134zM148 731h137l-137 -146h-83z" />
    <glyph glyph-name="icircumflex" unicode="&#xee;" horiz-adv-x="278" 
d="M72 0v515h134v-515h-134zM192 731l105 -146h-89l-68 86l-70 -86h-89l110 146h101z" />
    <glyph glyph-name="idieresis" unicode="&#xef;" horiz-adv-x="278" 
d="M72 0v515h134v-515h-134zM300 725v-116h-116v116h116zM-22 609v116h116v-116h-116z" />
    <glyph glyph-name="igrave" unicode="&#xec;" horiz-adv-x="278" 
d="M72 0v515h134v-515h-134zM204 585h-83l-137 146h137z" />
    <glyph glyph-name="ntilde" unicode="&#xf1;" horiz-adv-x="611" 
d="M69 515h127v-70h2q32 45 74 63.5t95 18.5q46 0 79 -15.5t54.5 -42.5t31.5 -64t10 -80v-325h-134v275q0 24 -1.5 50t-10 47.5t-26 36t-49.5 14.5q-36 0 -59 -17.5t-36 -43.5t-18 -55.5t-5 -54.5v-252h-134v515zM129 603q0 22 7.5 44t21 39t32.5 27.5t41 10.5t41.5 -6
t39.5 -14t36.5 -15t36.5 -7q23 0 33.5 14.5t10.5 34.5h54q0 -25 -6.5 -47t-19 -38.5t-30.5 -26t-41 -9.5q-28 0 -47 5t-39 13q-19 8 -36.5 13.5t-31.5 5.5q-26 0 -37.5 -15t-11.5 -29h-54z" />
    <glyph glyph-name="oacute" unicode="&#xf3;" horiz-adv-x="611" 
d="M36 254q0 64 20.5 114.5t57 85.5t85.5 54t106 19t106.5 -19t86 -54t57 -85.5t20.5 -114.5q0 -56 -18 -104.5t-52.5 -84.5t-85 -56.5t-114.5 -20.5t-114 20.5t-84.5 56.5t-52.5 84.5t-18 104.5zM176 270q0 -32 6 -63.5t20.5 -57t39.5 -41.5t63 -16q39 0 64 15.5t39.5 41
t20.5 57.5t6 64q0 30 -8 57.5t-24 48.5t-40.5 34t-57.5 13t-57 -13t-40 -34.5t-24 -49t-8 -56.5zM315 731h137l-137 -146h-83z" />
    <glyph glyph-name="ocircumflex" unicode="&#xf4;" horiz-adv-x="611" 
d="M36 254q0 64 20.5 114.5t57 85.5t85.5 54t106 19t106.5 -19t86 -54t57 -85.5t20.5 -114.5q0 -56 -18 -104.5t-52.5 -84.5t-85 -56.5t-114.5 -20.5t-114 20.5t-84.5 56.5t-52.5 84.5t-18 104.5zM176 270q0 -32 6 -63.5t20.5 -57t39.5 -41.5t63 -16q39 0 64 15.5t39.5 41
t20.5 57.5t6 64q0 30 -8 57.5t-24 48.5t-40.5 34t-57.5 13t-57 -13t-40 -34.5t-24 -49t-8 -56.5zM359 731l105 -146h-89l-68 86l-70 -86h-89l110 146h101z" />
    <glyph glyph-name="odieresis" unicode="&#xf6;" horiz-adv-x="611" 
d="M36 254q0 64 20.5 114.5t57 85.5t85.5 54t106 19t106.5 -19t86 -54t57 -85.5t20.5 -114.5q0 -56 -18 -104.5t-52.5 -84.5t-85 -56.5t-114.5 -20.5t-114 20.5t-84.5 56.5t-52.5 84.5t-18 104.5zM176 270q0 -32 6 -63.5t20.5 -57t39.5 -41.5t63 -16q39 0 64 15.5t39.5 41
t20.5 57.5t6 64q0 30 -8 57.5t-24 48.5t-40.5 34t-57.5 13t-57 -13t-40 -34.5t-24 -49t-8 -56.5zM467 725v-116h-116v116h116zM145 609v116h116v-116h-116z" />
    <glyph glyph-name="ograve" unicode="&#xf2;" horiz-adv-x="611" 
d="M36 254q0 64 20.5 114.5t57 85.5t85.5 54t106 19t106.5 -19t86 -54t57 -85.5t20.5 -114.5q0 -56 -18 -104.5t-52.5 -84.5t-85 -56.5t-114.5 -20.5t-114 20.5t-84.5 56.5t-52.5 84.5t-18 104.5zM176 270q0 -32 6 -63.5t20.5 -57t39.5 -41.5t63 -16q39 0 64 15.5t39.5 41
t20.5 57.5t6 64q0 30 -8 57.5t-24 48.5t-40.5 34t-57.5 13t-57 -13t-40 -34.5t-24 -49t-8 -56.5zM371 585h-83l-137 146h137z" />
    <glyph glyph-name="otilde" unicode="&#xf5;" horiz-adv-x="611" 
d="M36 254q0 64 20.5 114.5t57 85.5t85.5 54t106 19t106.5 -19t86 -54t57 -85.5t20.5 -114.5q0 -56 -18 -104.5t-52.5 -84.5t-85 -56.5t-114.5 -20.5t-114 20.5t-84.5 56.5t-52.5 84.5t-18 104.5zM176 270q0 -32 6 -63.5t20.5 -57t39.5 -41.5t63 -16q39 0 64 15.5t39.5 41
t20.5 57.5t6 64q0 30 -8 57.5t-24 48.5t-40.5 34t-57.5 13t-57 -13t-40 -34.5t-24 -49t-8 -56.5zM129 603q0 22 7.5 44t21 39t32.5 27.5t41 10.5t41.5 -6t39.5 -14t36.5 -15t36.5 -7q23 0 33.5 14.5t10.5 34.5h54q0 -25 -6.5 -47t-19 -38.5t-30.5 -26t-41 -9.5q-28 0 -47 5
t-39 13q-19 8 -36.5 13.5t-31.5 5.5q-26 0 -37.5 -15t-11.5 -29h-54z" />
    <glyph glyph-name="scaron" unicode="&#x161;" horiz-adv-x="444" 
d="M375 407q-31 11 -57 16.5t-63 5.5q-14 0 -28 -2.5t-25 -9.5t-18.5 -18t-7.5 -27q0 -20 17.5 -31.5t43 -20t56 -17.5t56 -26.5t43 -46t17.5 -74.5q0 -45 -18.5 -77t-48.5 -52t-69 -29.5t-80 -9.5q-38 0 -76.5 6t-75.5 16l8 110q32 -16 64.5 -25t67.5 -9q13 0 28 3t28.5 10
t22.5 19t9 31q0 25 -17.5 38t-43 22t-56 17t-56 24t-43 43t-17.5 74q0 42 17 72t45 49.5t64.5 29t75.5 9.5q48 0 81 -6t65 -13zM174 585l-110 146h89l70 -86l68 86h89l-105 -146h-101z" />
    <glyph glyph-name="uacute" unicode="&#xfa;" horiz-adv-x="611" 
d="M542 0h-127v70h-2q-31 -38 -73.5 -60t-95.5 -22q-46 0 -79 15t-54.5 42t-31.5 64t-10 81v325h134v-275q0 -24 1.5 -50t9.5 -47.5t26 -36t50 -14.5q36 0 59 17.5t36 43.5t18 55.5t5 54.5v252h134v-515zM315 731h137l-137 -146h-83z" />
    <glyph glyph-name="ucircumflex" unicode="&#xfb;" horiz-adv-x="611" 
d="M542 0h-127v70h-2q-31 -38 -73.5 -60t-95.5 -22q-46 0 -79 15t-54.5 42t-31.5 64t-10 81v325h134v-275q0 -24 1.5 -50t9.5 -47.5t26 -36t50 -14.5q36 0 59 17.5t36 43.5t18 55.5t5 54.5v252h134v-515zM359 731l105 -146h-89l-68 86l-70 -86h-89l110 146h101z" />
    <glyph glyph-name="udieresis" unicode="&#xfc;" horiz-adv-x="611" 
d="M542 0h-127v70h-2q-31 -38 -73.5 -60t-95.5 -22q-46 0 -79 15t-54.5 42t-31.5 64t-10 81v325h134v-275q0 -24 1.5 -50t9.5 -47.5t26 -36t50 -14.5q36 0 59 17.5t36 43.5t18 55.5t5 54.5v252h134v-515zM467 725v-116h-116v116h116zM145 609v116h116v-116h-116z" />
    <glyph glyph-name="ugrave" unicode="&#xf9;" horiz-adv-x="611" 
d="M542 0h-127v70h-2q-31 -38 -73.5 -60t-95.5 -22q-46 0 -79 15t-54.5 42t-31.5 64t-10 81v325h134v-275q0 -24 1.5 -50t9.5 -47.5t26 -36t50 -14.5q36 0 59 17.5t36 43.5t18 55.5t5 54.5v252h134v-515zM371 585h-83l-137 146h137z" />
    <glyph glyph-name="yacute" unicode="&#xfd;" 
d="M283 139h2l124 376h136l-193 -511q-16 -43 -32 -83.5t-39 -72t-57 -51t-86 -19.5q-47 0 -95 14l9 99q13 -5 28.5 -7t40.5 -2q41 0 64 25t23 67l-197 541h148zM287 731h137l-137 -146h-83z" />
    <glyph glyph-name="ydieresis" unicode="&#xff;" 
d="M283 139h2l124 376h136l-193 -511q-16 -43 -32 -83.5t-39 -72t-57 -51t-86 -19.5q-47 0 -95 14l9 99q13 -5 28.5 -7t40.5 -2q41 0 64 25t23 67l-197 541h148zM439 725v-116h-116v116h116zM117 609v116h116v-116h-116z" />
    <glyph glyph-name="zcaron" unicode="&#x17e;" horiz-adv-x="500" 
d="M47 515h408v-110l-256 -301h265v-104h-428v109l261 302h-250v104zM202 585l-110 146h89l70 -86l68 86h89l-105 -146h-101z" />
    <glyph glyph-name="Delta" unicode="&#x2206;" horiz-adv-x="653" 
d="M27 71l231 640h142l224 -639v-72h-597v71zM497 96l-114 305q-6 20 -14 44.5t-16 49.5t-15.5 47.5t-11.5 38.5h-4q-3 -13 -9.5 -32.5l-14 -42t-15 -46t-13.5 -43.5l-121 -321h348z" />
    <glyph glyph-name="Omega" unicode="&#x2126;" horiz-adv-x="707" 
d="M176 100q-23 21 -45.5 50t-39.5 65t-27.5 78.5t-10.5 90.5q0 67 22 125.5t62 102.5t95.5 69.5t123.5 25.5q72 0 127 -28t92.5 -73.5t57 -102t19.5 -113.5q0 -49 -11 -92.5t-28.5 -80.5t-40 -66.5t-46.5 -50.5v-3h139v-97h-259v71q24 16 46.5 41.5t40 61.5t28 83.5
t10.5 107.5q0 46 -11.5 90t-33.5 77.5t-55 54t-76 20.5q-41 0 -74.5 -18.5t-57 -51.5t-36.5 -78.5t-13 -98.5q0 -54 10.5 -100.5t27.5 -83.5t40 -63.5t47 -41.5v-71h-260v97h137v3z" />
    <glyph glyph-name="uni03BC" unicode="&#x3bc;" horiz-adv-x="611" 
d="M69 515h134v-275q0 -24 1.5 -50t9.5 -47.5t26 -36t50 -14.5q36 0 59 17.5t36 43.5t18 55.5t5 54.5v252h134v-515h-127v70h-2q-6 -14 -16.5 -28.5t-25.5 -26.5t-32.5 -19.5t-36.5 -7.5q-24 0 -49.5 5t-47.5 29h-2v-232h-134v725z" />
    <glyph glyph-name="pi" unicode="&#x3c0;" horiz-adv-x="595" 
d="M499 421v-273q0 -57 4 -91t9 -57h-115q-9 15 -13 51.5t-4 90.5v279h-144q-2 -42 -7.5 -98.5t-14 -115.5t-19.5 -114t-24 -93h-116q13 43 24 98.5t19.5 113t14 112.5t6.5 97q-38 0 -61 -3t-39 -8l-14 80q19 14 58 23t102 9h415l-9 -101h-72z" />
    <glyph glyph-name="Euro" unicode="&#x20ac;" 
d="M570 579q-24 12 -57.5 18t-60.5 6q-76 0 -128.5 -42t-75.5 -112h293l-15 -61h-294q-5 -39 0 -78h276l-14 -61h-246q23 -69 75.5 -110t127.5 -41q29 0 61 5.5t58 16.5l6 -112q-32 -11 -70.5 -15.5t-73.5 -4.5q-63 0 -118.5 17t-99.5 50.5t-74.5 82t-44.5 111.5h-99l15 61
h75q-3 39 0 78h-90l15 61h85q14 60 45 108.5t74.5 82t98 52t116.5 18.5q42 0 84.5 -6.5t81.5 -20.5z" />
    <glyph glyph-name="afii61289" unicode="&#x2113;" horiz-adv-x="507" 
d="M489 129q-38 -75 -91.5 -106t-112.5 -31q-45 0 -77 13.5t-53.5 36t-33 53t-14.5 63.5v11q-13 -9 -26 -19.5t-27 -21.5l-30 64q22 19 42.5 35t38.5 34v254q0 66 14 113.5t38 78t56 45t67 14.5q36 0 61.5 -13.5t42.5 -37.5t25 -56t8 -68q0 -90 -53 -175t-144 -173v-41
q2 -59 28 -87t64 -28q21 0 39.5 8t34.5 21t29.5 29t23.5 33zM220 353q54 60 88 122.5t34 119.5q0 40 -12.5 63t-44.5 23q-12 0 -23.5 -8t-20.5 -26.5t-15 -50t-6 -79.5v-164z" />
    <glyph glyph-name="estimated" unicode="&#x212e;" horiz-adv-x="870" 
d="M186 339q-5 0 -5 -4v-197q0 -13 9 -22q48 -49 110.5 -78t134.5 -29q78 0 144.5 32.5t114.5 86.5h57q-54 -63 -137 -101t-180 -38q-83 0 -156 28.5t-127 77t-85.5 114t-31.5 140.5t31.5 140.5t85.5 114.5t127 77.5t156 28.5t156.5 -28.5t128 -77.5t86 -114.5t31.5 -140.5
v-10h-650zM688 562q0 13 -9 24q-48 47 -110 74.5t-134 27.5t-134 -29t-110 -77q-10 -9 -10 -24v-193q0 -7 5 -7h498q4 0 4 7v197z" />
    <glyph glyph-name="partialdiff" unicode="&#x2202;" horiz-adv-x="568" 
d="M68 728q23 18 67.5 37.5t112.5 19.5q54 0 103 -24t86.5 -71t60 -118.5t22.5 -165.5q0 -92 -18.5 -168.5t-54 -131t-87 -84.5t-117.5 -30q-52 0 -90.5 21.5t-64 55.5t-38 76t-12.5 83q0 60 17 108t46 81.5t68.5 52t83.5 18.5q31 0 56 -9t44 -22t31 -27t18 -24h1q1 6 1 17
v17q0 50 -12.5 95t-35 78.5t-54 53.5t-69.5 20q-46 0 -78 -15.5t-52 -32.5zM255 91q29 0 52.5 19t41 50t28.5 69t15 76q-4 12 -13.5 27.5t-24.5 28.5t-34.5 22t-43.5 9q-26 0 -48 -13.5t-38 -37t-25 -54t-9 -63.5q0 -28 7 -52t19.5 -42t30.5 -28.5t41 -10.5h1z" />
    <glyph glyph-name="product" unicode="&#x220f;" horiz-adv-x="715" 
d="M587 588v-684h-117v684h-226v-684h-117v684h-103v108h665v-108h-102z" />
    <glyph glyph-name="summation" unicode="&#x2211;" horiz-adv-x="555" 
d="M23 -96v76l244 320l-235 313v83h487v-101h-327v-4l209 -272l-231 -302v-3h365v-110h-512z" />
    <glyph glyph-name="uni2219" unicode="&#x2219;" horiz-adv-x="278" 
d="M139 207q-35 0 -56 21.5t-21 55.5t21 55.5t56 21.5t56 -21.5t21 -55.5t-21 -55.5t-56 -21.5z" />
    <glyph glyph-name="radical" unicode="&#x221a;" horiz-adv-x="587" 
d="M371 -141h-96l-149 440l-74 -29l-20 67l165 66l106 -325q5 -23 10.5 -45l9.5 -38l1 -1q3 16 6.5 40t8.5 49l172 750h83z" />
    <glyph glyph-name="infinity" unicode="&#x221e;" horiz-adv-x="774" 
d="M726 287q0 -40 -13.5 -71.5t-35.5 -53.5t-51 -33.5t-59 -11.5q-44 0 -86.5 24.5t-92.5 89.5q-19 -24 -39 -44.5t-42 -36t-47.5 -24.5t-55.5 -9q-31 0 -59.5 12t-50 34t-34 52.5t-12.5 66.5q0 37 12.5 68.5t34.5 53.5t52 34.5t65 12.5q56 0 98.5 -31t81.5 -81q16 18 34 38
t39.5 36.5t48 27t59.5 10.5t61 -11.5t48.5 -33t32 -51.5t11.5 -67v-1zM213 183q21 0 40 9t36 23t32.5 31t30.5 34q-15 20 -30.5 39.5t-32.5 34.5t-36.5 24t-44.5 9q-44 0 -68 -30.5t-24 -75.5q0 -41 27 -69.5t69 -28.5h1zM565 387q-23 0 -43 -10.5t-37.5 -26.5t-32.5 -33.5
t-27 -30.5q23 -28 41.5 -47.5t35 -32t33 -18t35.5 -5.5q21 0 37.5 9t27.5 23.5t17 32t6 34.5q0 47 -25 76t-67 29h-1z" />
    <glyph glyph-name="integral" unicode="&#x222b;" horiz-adv-x="389" 
d="M354 765q-7 4 -16 6.5t-20 2.5q-14 0 -27 -5.5t-22 -19.5q-17 -21 -23 -63t-6 -106q0 -60 2.5 -118t5 -117t5 -120t2.5 -127q0 -72 -10 -121t-27 -78q-20 -38 -54 -53.5t-70 -15.5q-23 0 -43.5 5t-31.5 11l15 84q8 -3 19 -6.5t25 -3.5q12 0 24 4.5t20 15.5
q13 18 20.5 53.5t7.5 103.5q0 67 -2.5 129t-5 122l-5 120t-2.5 123q0 86 13.5 138t45.5 85q21 23 51.5 34t61.5 11q18 0 35 -4t25 -8z" />
    <glyph glyph-name="approxequal" unicode="&#x2248;" horiz-adv-x="550" 
d="M509 408q-23 -45 -57 -73.5t-77 -28.5q-30 0 -54 10t-58 30q-23 14 -43 24t-44 10q-34 0 -55 -22.5t-39 -49.5l-43 39q22 44 59.5 72.5t83.5 28.5q36 0 61.5 -13.5t44.5 -24.5q27 -15 46 -25t42 -10q29 0 49.5 19.5t40.5 52.5zM509 224q-23 -44 -56.5 -72.5t-78.5 -28.5
q-29 0 -53.5 10t-57.5 30q-23 14 -43 24t-44 10q-34 0 -54.5 -22.5t-39.5 -50.5l-43 40q22 44 60 72t83 28q36 0 61 -12.5t45 -23.5q24 -14 43.5 -25t44.5 -11q29 0 49 19t41 52z" />
    <glyph glyph-name="notequal" unicode="&#x2260;" horiz-adv-x="550" 
d="M362 420h139v-69h-165l-60 -137h225v-69h-252l-50 -114l-55 23l41 91h-137v69h164l59 137h-223v69h250l49 112l55 -23z" />
    <glyph glyph-name="lessequal" unicode="&#x2264;" horiz-adv-x="550" 
d="M53 321v75l445 222v-81l-375 -177v-2l375 -178v-82zM49 -10v71h453v-71h-453z" />
    <glyph glyph-name="greaterequal" unicode="&#x2265;" horiz-adv-x="550" 
d="M500 395v-74l-445 -223v82l375 177v3l-375 177v81zM50 -10v71h450v-71h-450z" />
    <glyph glyph-name="lozenge" unicode="&#x25ca;" horiz-adv-x="587" 
d="M338 -48h-95l-193 395l198 396h95l194 -396zM314 588q-5 14 -10.5 30t-8.5 29h-3q-3 -14 -8 -29t-11 -30l-118 -238l119 -247q5 -15 10 -30.5t7 -25.5h4q2 11 7.5 28.5t9.5 25.5l119 244z" />
    <glyph glyph-name="uni00A0" unicode="&#xa0;" horiz-adv-x="278" 
 />
    <glyph glyph-name="uni00AD" unicode="&#xad;" horiz-adv-x="333" 
d="M35 214v110h263v-110h-263z" />
    <glyph glyph-name="uni02C9" unicode="&#x2c9;" horiz-adv-x="278" 
d="M-5 618v80h288v-80h-288z" />
    <glyph glyph-name="uni03A9" unicode="&#x3a9;" horiz-adv-x="707" 
d="M176 100q-23 21 -45.5 50t-39.5 65t-27.5 78.5t-10.5 90.5q0 67 22 125.5t62 102.5t95.5 69.5t123.5 25.5q72 0 127 -28t92.5 -73.5t57 -102t19.5 -113.5q0 -49 -11 -92.5t-28.5 -80.5t-40 -66.5t-46.5 -50.5v-3h139v-97h-259v71q24 16 46.5 41.5t40 61.5t28 83.5
t10.5 107.5q0 46 -11.5 90t-33.5 77.5t-55 54t-76 20.5q-41 0 -74.5 -18.5t-57 -51.5t-36.5 -78.5t-13 -98.5q0 -54 10.5 -100.5t27.5 -83.5t40 -63.5t47 -41.5v-71h-260v97h137v3z" />
    <glyph glyph-name="uni2215" unicode="&#x2215;" horiz-adv-x="167" 
d="M251 720h82l-417 -742h-82z" />
    <glyph glyph-name="Dcroat" unicode="&#x110;" horiz-adv-x="722" 
d="M81 336h-64v86h64v276h191q80 0 153 -15.5t128.5 -55t88.5 -107t33 -171.5t-33 -171.5t-88.5 -107t-128.5 -55t-153 -15.5h-191v336zM221 110h78q44 0 85.5 16t73.5 46.5t51.5 75t19.5 101.5t-19.5 101.5t-51.5 75t-73.5 46.5t-85.5 16h-78v-166h146v-86h-146v-226z" />
    <glyph glyph-name="dcroat" unicode="&#x111;" horiz-adv-x="611" 
d="M542 569v-569h-130v58h-2q-30 -38 -70 -54t-88 -16q-59 0 -100.5 22.5t-67 60t-37 86.5t-11.5 102t11.5 101.5t37 85.5t67 59t100.5 22q51 0 87.5 -17.5t66.5 -54.5h2v114h-75v110h75v71h134v-71h54v-110h-54zM176 259q0 -27 5.5 -56t18 -54t34.5 -41t55 -16t56 16
t36.5 40.5t19.5 54t6 56.5t-6.5 56t-21 53t-37.5 39.5t-55 15.5q-33 0 -54 -16t-34 -40t-18 -53t-5 -55z" />
    <glyph glyph-name="Cacute" unicode="&#x106;" horiz-adv-x="611" 
d="M589 10q-38 -9 -78.5 -15.5t-80.5 -6.5q-85 0 -155.5 21.5t-121 64.5t-78.5 108.5t-28 154.5q0 90 26.5 159.5t76 117t120.5 72t160 24.5q35 0 77.5 -7t80.5 -22l-10 -118q-40 23 -76.5 30t-74.5 7q-54 0 -97.5 -19.5t-73.5 -53.5t-46.5 -80t-16.5 -100q0 -53 16 -98.5
t46.5 -79t74.5 -52.5t100 -19q42 0 85 8t68 21zM362 889h137l-137 -146h-83z" />
    <glyph glyph-name="cacute" unicode="&#x107;" horiz-adv-x="444" 
d="M403 404q-18 8 -39 13.5t-52 5.5q-63 0 -99.5 -45t-36.5 -118q0 -36 8.5 -66.5t25.5 -53t43.5 -35.5t61.5 -13q29 0 57.5 8t45.5 16l6 -111q-29 -9 -60.5 -13t-73.5 -4q-63 0 -111 20.5t-79.5 56.5t-47.5 86t-16 109q0 56 16.5 104.5t48 84.5t78 57t106.5 21
q41 0 71.5 -4.5t58.5 -12.5zM287 731h137l-137 -146h-83z" />
    <glyph glyph-name="Ccaron" unicode="&#x10c;" horiz-adv-x="611" 
d="M589 10q-38 -9 -78.5 -15.5t-80.5 -6.5q-85 0 -155.5 21.5t-121 64.5t-78.5 108.5t-28 154.5q0 90 26.5 159.5t76 117t120.5 72t160 24.5q35 0 77.5 -7t80.5 -22l-10 -118q-40 23 -76.5 30t-74.5 7q-54 0 -97.5 -19.5t-73.5 -53.5t-46.5 -80t-16.5 -100q0 -53 16 -98.5
t46.5 -79t74.5 -52.5t100 -19q42 0 85 8t68 21zM373 749l-110 146h89l70 -86l68 86h89l-105 -146h-101z" />
    <glyph glyph-name="ccaron" unicode="&#x10d;" horiz-adv-x="444" 
d="M403 404q-18 8 -39 13.5t-52 5.5q-63 0 -99.5 -45t-36.5 -118q0 -36 8.5 -66.5t25.5 -53t43.5 -35.5t61.5 -13q29 0 57.5 8t45.5 16l6 -111q-29 -9 -60.5 -13t-73.5 -4q-63 0 -111 20.5t-79.5 56.5t-47.5 86t-16 109q0 56 16.5 104.5t48 84.5t78 57t106.5 21
q41 0 71.5 -4.5t58.5 -12.5zM228 581l-110 146h89l70 -86l68 86h89l-105 -146h-101z" />
    </font>
</defs>
</svg>
